Today is a free download without charge Download

Сказка про доброго носорога (Евгений Сивоконь) [1970 г., мультфильм, DVB-AVC]

Reply to topic
 
Author
Message

Omen ®

Longevity: 7 years 11 months

Posts: 181087

Торрент-статистика

Post 03-Apr-2014 11:00

[Quote]

Сказка про доброго носорога
Жанр: мультфильм
Год выпуска: 1970
Продолжительность: 00:07:45
Режиссёр: Евгений Сивоконь
Описание: мультфильм создан по мотивам стихотворения Бориса Заходера о добродушном Носороге ...
Доп. информация:

Трансляция спутникового канала: "Перец"
Качество видео: DVB
Формат видео: MPEG-TS
Видео: MPEG4 Video (H264), [email protected] (4:3), анаморф, 25 fps, 3600 kbps
Аудио: MPEG Audio, 2 сh, 48 kHz, 256 kbps

MediaInfo

D:\Сказка про доброго носорога. (1970)_DVB by SLuMeP.ts
General #1
ID : 1 (0x1)
Complete name : D:\___DVB by SLuMeP\Сказка про доброго носорога. (1970)_DVB by SLuMeP.ts
Format : MPEG-TS
File size : 223 MiB
Duration : 7mn 45s
Overall bit rate : 4 015 Kbps
Video #2522
ID : 2522 (0x9DA)
Menu ID : 1 (0x1)
Format : AVC
Format/Info : Advanced Video Codec
Format profile : [email protected]
Format settings, CABAC : Yes
Format settings, ReFrames : 3 frames
Codec ID : 27
Duration : 7mn 45s
Bit rate : 3 558 Kbps
Width : 720 pixels
Height : 576 pixels
Display aspect ratio : 4:3
Frame rate : 25.000 fps
Standard : Component
Color space : YUV
Chroma subsampling : 4:2:0
Bit depth : 8 bits
Scan type : Interlaced
Scan order : Top Field First
Bits/(Pixel*Frame) : 0.343
Stream size : 198 MiB (89%)
Color primaries : BT.470-6 System B, BT.470-6 System G, BT.601-6 625, BT.1358 625, BT.1700 625 PAL, BT.1700 625 SECAM
Transfer characteristics : BT.470-6 System B, BT.470-6 System G
Matrix coefficients : BT.470-6 System B, BT.470-6 System G, BT.601-6 625, BT.1358 625, BT.1700 625 PAL, BT.1700 625 SECAM, IEC 61966-2-4 601
Audio #3522
ID : 3522 (0xDC2)
Menu ID : 1 (0x1)
Format : MPEG Audio
Format version : Version 1
Format profile : Layer 2
Codec ID : 3
Duration : 7mn 45s
Bit rate mode : Constant
Bit rate : 256 Kbps
Channel(s) : 2 channels
Sampling rate : 48.0 KHz
Compression mode : Lossy
Stream size : 14.2 MiB (6%)
Language : English

Скриншоты


Other forum [Profile] [PM]
Display posts from previous:    
Reply to topic

The time now is: Today 10:45

All times are GMT + 3 Hours



You cannot post new topics in this forum
You cannot reply to topics in this forum
You cannot edit your posts in this forum
You cannot delete your posts in this forum
You cannot vote in polls in this forum
You cannot attach files in this forum
You cannot download files in this forum