Today is a free download without charge Download

Земляничный дождик (Борис Тузанович)[1990.,Детский] DVDRip

Reply to topic
 
Author
Message

sashau ®

Gender:

Longevity: 8 years 10 months

Posts: 3497

Торрент-статистика

Post 01-Apr-2014 10:06

[Quote]

Земляничный дождик- Год выпуска: 1990
Жанр: Детский
Режиссер: Борис Тузанович
Роли озвучивали: Людмила Гнилова, Игорь Ясулович, Татьяна Божок, Евгений Герчаков, Наталья Ромашенко, Александр Крюков
Описание фильма:
Как ветерок принес зверюшкам тучки с земляничным, сырным и морковным дождем — каждому по вкусу.
Продолжительность: 00:07:09
Качество видео: DVDRip
Видеокодек: Xvid
Битрейт видео: ~2138 kb/s
Размер кадра: 720x544
Аудиокодек: AC3, 2 ch
Битрейт аудио: 192 kb/s

MediaInfo

Видео
Идентификатор : 0
Формат : MPEG-4 Visual
Профиль формата : Advanced [email protected]
Параметр BVOP формата : 1
Параметр QPel формата : Нет
Параметр GMC формата : Без точки перехода
Параметр матрицы формата : Выборочная
Идентификатор кодека : XVID
Идентификатор кодека/Подсказка : XviD
Продолжительность : 7 м. 9 с.
Битрейт : 2138 Кбит/сек
Ширина : 720 пикс.
Высота : 544 пикс.
Соотношение сторон : 4:3
Частота кадров : 25,000 кадр/сек
Цветовое пространство : YUV
Подвыборка цветности : 4:2:0
Битовая глубина : 8 бит
Тип развёртки : Прогрессивная
Метод сжатия : С потерями
Бит/(Пиксели*Кадры) : 0.218
Размер потока : 110 Мбайт (91%)
Библиотека кодирования : XviD 1.2.0.dev47 (UTC 2006-11-01)
Аудио
Идентификатор : 1
Формат : AC-3
Формат/Информация : Audio Coding 3
Расширение режима : CM (complete main)
Идентификатор кодека : 2000
Продолжительность : 7 м. 9 с.
Вид битрейта : Постоянный
Битрейт : 192 Кбит/сек
Канал(ы) : 2 канала(ов)
Расположение каналов : Front: L R
Частота : 48,0 КГц
Битовая глубина : 16 бит
Метод сжатия : С потерями
Размер потока : 9,83 Мбайт (8%)
Выравнивание : Разделение по промежуткам
Продолжительность промежутка : 40 мс. (1,00 видеокадр)
Время предзагрузки промежутка : 500 ms
Скриншоты:
       
   
Other forum [Profile] [PM]
Display posts from previous:    
Reply to topic

The time now is: Today 11:19

All times are GMT + 3 Hours



You cannot post new topics in this forum
You cannot reply to topics in this forum
You cannot edit your posts in this forum
You cannot delete your posts in this forum
You cannot vote in polls in this forum
You cannot attach files in this forum
You cannot download files in this forum