Today is a free download without charge Download

Остров ржавого генерала (Валентин Ховенко)[1988.,Детский, фантастика, приключения, сказка] SATRip [H.264]

Reply to topic
 
Author
Message

sashau ®

Gender:

Longevity: 9 years 6 months

Posts: 3497

Торрент-статистика

Post 01-Apr-2014 10:00

[Quote]

Остров ржавого генерала - Год выпуска: 1988
Жанр: Детский, фантастика, приключения, сказка
Выпущено: СССР, ТО Экран
Описание фильма:
По повести Кира Булычева "Миллион приключений".
Московская школьница XXI века Алиса Селезнёва, снимающаяся в фильме-сказке, становится героиней необыкновенных приключений. В это время при раскопках обнаруживают старых боевых роботов, их отправляют на переплавку, но по дороге по морю они пропадают. Оказывается, они не полностью утратили свои военные способности и смогли сбежать, высадиться на необитаемом острове и начать подготовку к захвату человечества. Отлучившись в один из дней со съёмок, Алиса попадает к ним в плен…
Режиссер: Валентин Ховенко
Актеры: Катя Прижбиляк, Александр Леньков, Михаил Данилов, Людмила Артемьева, Сергей Соколов, Сергей Скрипкин, Владимир Балон
Продолжительность: 01:05:58

Видеокодек: MPEG-4 AVC/H.264
Битрейт видео: ~1382 Кбит/с
Размер кадра: 704 x 480 @ 704 x 538
Качество видео: SATRip
Аудиокодек: AC3 2.0
Битрейт аудио: 192 Кбит/с

MediaInfo

Общее
Уникальный идентификатор : 246806882515054443986115372405626902177 (0xB9AD46CC16F1DEDDA175A8859A4E16A1)
Полное имя : Ostrov.rzhavogo.generala.1988.DVDRip-AVC.mkv
Формат : Matroska
Версия формата : Version 2
Размер файла : 744 Мбайт
Продолжительность : 1 ч. 6 м.
Общий поток : 1576 Кбит/сек
Дата кодирования : UTC 2014-03-29 19:44:16
Программа кодирования : mkvmerge v6.1.0 ('Old Devil') built on Mar 4 2013 09:10:42
Библиотека кодирования : libebml v1.3.0 + libmatroska v1.4.0
Видео
Идентификатор : 1
Формат : AVC
Формат/Информация : Advanced Video Codec
Профиль формата : [url=mailto:[email protected]][email protected][/url]
Параметр CABAC формата : Да
Параметр ReFrames формата : 8 кадров
Идентификатор кодека : V_MPEG4/ISO/AVC
Продолжительность : 1 ч. 6 м.
Битрейт : 1382 Кбит/сек
Ширина : 704 пикселя
Высота : 480 пикселей
Соотношение сторон : 4:3
Режим частоты кадров : Постоянный
Частота кадров : 23,976 кадра/сек
Стандарт вещания : NTSC
Цветовое пространство : YUV
Субдискретизация насыщенности : 4:2:0
Битовая глубина : 8 бит
Тип развёртки : Прогрессивная
Бит/(Пиксели*Кадры) : 0.171
Размер потока : 639 Мбайт (86%)
Библиотека кодирования : x264 core 138 r2356 a1d3d17
Настройки программы : cabac=1 / ref=8 / deblock=1:-2:-1 / analyse=0x3:0x113 / me=umh / subme=10 / psy=1 / psy_rd=1.00:0.05 / mixed_ref=1 / me_range=32 / chroma_me=1 / trellis=2 / 8x8dct=1 / cqm=0 / deadzone=21,11 / fast_pskip=0 / chroma_qp_offset=-3 / threads=3 / lookahead_threads=1 / sliced_threads=0 / nr=0 / decimate=0 / interlaced=0 / bluray_compat=0 / constrained_intra=0 / bframes=8 / b_pyramid=2 / b_adapt=2 / b_bias=0 / direct=3 / weightb=1 / open_gop=0 / weightp=2 / keyint=240 / keyint_min=24 / scenecut=40 / intra_refresh=0 / rc_lookahead=40 / rc=2pass / mbtree=1 / bitrate=1382 / ratetol=1.0 / qcomp=0.60 / qpmin=0 / qpmax=69 / qpstep=4 / cplxblur=20.0 / qblur=0.5 / ip_ratio=1.40 / aq=1:1.00
Default : Да
Forced : Нет
Аудио
Идентификатор : 2
Формат : AC-3
Формат/Информация : Audio Coding 3
Расширение режима : CM (complete main)
Параметр Endianness формата : Big
Идентификатор кодека : A_AC3
Продолжительность : 1 ч. 6 м.
Вид битрейта : Постоянный
Битрейт : 192 Кбит/сек
Каналы : 2 канала
Расположение каналов : Front: L R
Частота : 48,0 КГц
Битовая глубина : 16 бит
Метод сжатия : С потерями
Размер потока : 90,7 Мбайт (12%)
Default : Да
Forced : Нет
Скриншоты:          
Other forum [Profile] [PM]
Similar theme
Forum Topic Author Torrent Replies Last Post
./templates/default/images/folder_dl.gif Обучающая и развивающая литература, учебники С.В. Запечников и др. | Основы построения виртуальных частных сетей (2011) [PDF] Anonymous
1 | 0

0 | 2039

4

2017-07-12 23:41
Anonymous Latest
Display posts from previous:    
Reply to topic

The time now is: Today 17:06

All times are GMT + 3 Hours



You cannot post new topics in this forum
You cannot reply to topics in this forum
You cannot edit your posts in this forum
You cannot delete your posts in this forum
You cannot vote in polls in this forum
You cannot attach files in this forum
You cannot download files in this forum