Сегодня идет свободное скачивание без начисления Download

Миссия: невыполнима. Квадрология / Mission: Impossible. Quadrilogy (1996-2011) BDRip-AVC

Ответить на тему
 
Автор
Сообщение

Omen ®

Стаж: 5 лет 10 месяцев

Сообщений: 184329

Торрент-статистика

Пост 30-Мар-2014 10:55

[Цитировать]

Миссия: невыполнима. Квадрология / Mission: Impossible. Quadrilogy (1996-2011)
-
--

Миссия: невыполнима / Mission: Impossible

Миссия: невыполнима / Mission: Impossible
Слоган: «Expect the Impossible»
Год выпуска: 1996
Страна: США
Жанр: боевик, триллер, приключения
Продолжительность: 1:50:12
Перевод: Профессиональный (многоголосый, закадровый), Авторский (одноголосый)
Русские субтитры: есть
Режиссер: Брайан Де Пальма / Brian De Palma
В ролях: Том Круз (Ethan Hunt,), Джон Войт (Jim Phelps), Эммануэль Беар (Claire Phelps), Генри Черни (Eugene Kittridge), Жан Рено (Franz Krieger), Винг Реймз (Luther Stickell), Кристин Скотт Томас (Sarah Davies), Ванесса Редгрейв (Max), Дейл Дай (Frank Barnes), Марчел Юреш (Alexander Golitsyn), Ион Карамитру (Zozimov), Ингеборга Дапкунайте (Hannah Williams)
Описание: Агент ЦРУ Итон Хант оказался в положении подозреваемого в предательстве «крота», из-за которого погибли несколько членов его команды, включая руководителя группы Джима Фелпса. В живых осталась еще только коллега Ханта - жена Фелпса агент Клэр. Чтобы снять с себя обвинения в предательстве, Ханту надо найти настоящего «крота».- -MPAA: - Детям до 13 лет просмотр не желателен-Качество видео: BDRip-AVC
Формат видео: MKV
Видео кодек: H.264
Аудио кодек: AC3
Видео: 1024x432, 29.97fps, 1939 Kbps, 0.183 bit/pixel
Аудио: 48.0 KHz, 6 ch, 448 Kbps - Rus / Eng

MediaInfo

Format : Matroska
Format version : Version 2
File size : 2.18 GiB
Duration : 1h 50mn
Overall bit rate : 2 837 Kbps
Movie name : Mission: Impossible (1996) - The Jolly Roger by /*spam*/ [zyyx]
Encoded date : UTC 2012-11-25 08:27:55
Writing application : mkvmerge v4.9.1 ('Ich will') сборка от Aug 10 2011 09:31:20
Writing library : libebml v1.2.1 + libmatroska v1.2.0
Video
ID : 1
Format : AVC
Format/Info : Advanced Video Codec
Format profile : [email protected]
Format settings, CABAC : Yes
Format settings, ReFrames : 14 frames
Codec ID : V_MPEG4/ISO/AVC
Duration : 1h 50mn
Bit rate : 1 939 Kbps
Width : 1 024 pixels
Height : 432 pixels
Display aspect ratio : 2.40:1
Frame rate : 23.976 fps
Color space : YUV
Chroma subsampling : 4:2:0
Bit depth : 8 bits
Scan type : Progressive
Bits/(Pixel*Frame) : 0.183
Stream size : 1.45 GiB (66%)
Title : JRG
Writing library : x264 core 125 r2200 999b753
Encoding settings : cabac=1 / ref=14 / deblock=1:-1:-1 / analyse=0x3:0x133 / me=umh / subme=11 / psy=1 / psy_rd=1.00:0.10 / mixed_ref=1 / me_range=64 / chroma_me=1 / trellis=2 / 8x8dct=1 / cqm=0 / deadzone=21,11 / fast_pskip=0 / chroma_qp_offset=-3 / threads=26 / lookahead_threads=6 / sliced_threads=0 / nr=0 / decimate=1 / interlaced=0 / bluray_compat=0 / constrained_intra=0 / bframes=8 / b_pyramid=2 / b_adapt=2 / b_bias=0 / direct=3 / weightb=1 / open_gop=0 / weightp=2 / keyint=250 / keyint_min=23 / scenecut=40 / intra_refresh=0 / rc_lookahead=50 / rc=2pass / mbtree=1 / bitrate=1939 / ratetol=1.0 / qcomp=0.60 / qpmin=0 / qpmax=69 / qpstep=4 / cplxblur=20.0 / qblur=0.5 / ip_ratio=1.40 / aq=1:1.00
Default : Yes
Forced : No
Audio #1
ID : 2
Format : AC-3
Format/Info : Audio Coding 3
Mode extension : CM (complete main)
Format settings, Endianness : Big
Codec ID : A_AC3
Duration : 1h 50mn
Bit rate mode : Constant
Bit rate : 448 Kbps
Channel(s) : 6 channels
Channel positions : Front: L C R, Side: L R, LFE
Sampling rate : 48.0 KHz
Bit depth : 16 bits
Compression mode : Lossy
Stream size : 353 MiB (16%)
Language : Russian
Default : Yes
Forced : No
Audio #2
ID : 3
Format : AC-3
Format/Info : Audio Coding 3
Mode extension : CM (complete main)
Format settings, Endianness : Big
Codec ID : A_AC3
Duration : 1h 50mn
Bit rate mode : Constant
Bit rate : 448 Kbps
Channel(s) : 6 channels
Channel positions : Front: L C R, Side: L R, LFE
Sampling rate : 48.0 KHz
Bit depth : 16 bits
Compression mode : Lossy
Stream size : 353 MiB (16%)
Language : English
Default : No
Forced : No
Text #1
ID : 4
Format : UTF-8
Codec ID : S_TEXT/UTF8
Codec ID/Info : UTF-8 Plain Text
Language : Russian
Default : No
Forced : No
Text #2
ID : 5
Format : UTF-8
Codec ID : S_TEXT/UTF8
Codec ID/Info : UTF-8 Plain Text
Language : English
Default : No
Forced : No
-

Награды

Премия канала «MTV», 1997 год
Номинации (1):
• Лучшая экшн-сцена
Золотая малина, 1997 год
Номинации (1):
• Худший блокбастер (фильм, собравший более 100 млн. долларов)
Сатурн, 1997 год
Номинации (1):
• Лучший приключенческий фильм, боевик или триллер

Знаете ли вы, что...

Знаете ли Вы что....
  • В тоннеле под Ла-Маншем поезда встречных направлений ходят по изолированным тоннелям: герой с крыши поезда никак не мог видеть идущий навстречу состав.
  • Изначально, на роль Клэр Брайан Де Пальма предлагал Жюльет Бинош.
  • Это первый фильм, который показывался в более чем 3000-х кинотеатрах в США.
  • Роль Ванессы Редгрейв изначально писалась для мужчины.
  • Фильм снят по телесериалу Брюса Геллера.

...из книги «3500 кинорецензий»

Для американцев, как известно, вообще нет ничего невыполнимого. Вот и Итэн Хант, ловкий и хитроумный агент ЦРУ, который работает под прикрытием и даже использует специальные маски для лица (ну, чем не Фантомас?!), чтобы оставаться неузнанным, занят, как раз в соответствии со своей фамилией, охотой в современном смысле этого слова. Но однажды он был подставлен собственными корыстолюбивыми коллегами и заподозрен начальниками, поэтому вынужден самостоятельно выпутываться из крайне затруднительного положения. То проникает в закрытый для доступа банк данных в штаб-квартире ЦРУ в Лэнгли, то умудряется остаться в живых даже на крыше бешено несущегося трансатлантического экспресса (а эту неправдоподобную сцену можно счесть вообще фантастической).
Красавчик и любимчик публики Том Круз после инфернальной роли в «Интервью с вампиром» вернулся к амплуа романтического героя боевиков, доказывая, что может быть супер-асом не только в лётном деле («Супер-ас») и автогонках («Дни грома»), но и в требующей проблесков ума работе законспирированного международного разведчика. А режиссёр Брайан Де Пальма, который всегда ходил в кинематографических оригиналах Голливуда, делавших стильные картины, но без особого зрительского успеха, тоже смог прыгнуть намного «выше крыши», побив личный кассовый рекорд всего лишь за 6 дней проката фильма «Миссия невыполнима». Однако внушительные общие результаты (бюджет $75 млн. был превзойдён только в США почти в 2,5 раза) оказались вовсе не пределом — последовавшее через четыре года продолжение, которое осуществил уже Джон Ву, собрало ещё больше денег и в Америке, и в остальном мире.
-Скриншоты:
     
--

Миссия: невыполнима 2 / Mission: Impossible II

Миссия: невыполнима 2 / Mission: Impossible II
Слоган: «Expect the impossible again»
Год выпуска: 2000
Страна: США, Германия
Жанр: боевик, триллер, приключения
Продолжительность: 2:03:35
Перевод: Профессиональный (многоголосый, закадровый), Авторский (одноголосый)
Русские субтитры: есть
Режиссер: Джон Ву / John Woo
В ролях: Том Круз (Ethan Hunt,), Дюгрэй Скотт (Sean Ambrose), Тэнди Ньютон (Nyah Nordoff-Hall), Винг Реймз (Luther Stickell), Ричард Роксбург (Hugh Stamp), Джон Полсон (Billy Baird), Брендан Глисон (John C. McCloy), Раде Шербеджия (Dr. Nekhorvich), Уильям Мапотер (Wallis), Доминик Пурселл (Ulrich), Мэттью Уилкинсон (Michael), Николас Белл (Accountant)
Описание: Если мир внезапно оказывается перед лицом ужасной катастрофы, есть лишь один человек, который может исправить это ужасное положение. Его имя Итан Хант, он прирожденный специалист по разрешению самых неразрешимых ситуаций.
Теперь у Итана - новый, строгий начальник, новая очаровательная возлюбленная, новый коварный противник и новое задание, которое простому смертному просто не по плечу. Но Итан Хант не был бы Итаном Хантом, если бы не смог с блеском выполнить очередную невыполнимую миссию: справиться с кровожадными террористами и спасти планету от ужасного, смертельного вируса!- -MPAA: - Детям до 13 лет просмотр не желателен-Качество видео: BDRip-AVC
Формат видео: MKV
Видео кодек: H.264
Аудио кодек: AC3
Видео: 1024x432, 29.97fps, 1632 Kbps, 0.183 bit/pixel
Аудио: 48.0 KHz, 6 ch, 448 Kbps - Rus / Eng

MediaInfo

Format : Matroska
Format version : Version 2
File size : 2.18 GiB
Duration : 2h 3mn
Overall bit rate : 2 530 Kbps
Movie name : Mission: Impossible II (2000) - The Jolly Roger by /*spam*/ [zyyx]
Encoded date : UTC 2012-11-25 08:49:09
Writing application : mkvmerge v4.9.1 ('Ich will') сборка от Aug 10 2011 09:31:20
Writing library : libebml v1.2.1 + libmatroska v1.2.0
Video
ID : 1
Format : AVC
Format/Info : Advanced Video Codec
Format profile : [email protected]
Format settings, CABAC : Yes
Format settings, ReFrames : 14 frames
Codec ID : V_MPEG4/ISO/AVC
Duration : 2h 3mn
Bit rate : 1 632 Kbps
Width : 1 024 pixels
Height : 432 pixels
Display aspect ratio : 2.40:1
Frame rate : 23.976 fps
Color space : YUV
Chroma subsampling : 4:2:0
Bit depth : 8 bits
Scan type : Progressive
Bits/(Pixel*Frame) : 0.154
Stream size : 1.37 GiB (63%)
Title : JRG
Writing library : x264 core 125 r2200 999b753
Encoding settings : cabac=1 / ref=14 / deblock=1:-1:-1 / analyse=0x3:0x133 / me=umh / subme=11 / psy=1 / psy_rd=1.00:0.10 / mixed_ref=1 / me_range=64 / chroma_me=1 / trellis=2 / 8x8dct=1 / cqm=0 / deadzone=21,11 / fast_pskip=0 / chroma_qp_offset=-3 / threads=26 / lookahead_threads=6 / sliced_threads=0 / nr=0 / decimate=1 / interlaced=0 / bluray_compat=0 / constrained_intra=0 / bframes=8 / b_pyramid=2 / b_adapt=2 / b_bias=0 / direct=3 / weightb=1 / open_gop=0 / weightp=2 / keyint=250 / keyint_min=23 / scenecut=40 / intra_refresh=0 / rc_lookahead=50 / rc=2pass / mbtree=1 / bitrate=1632 / ratetol=1.0 / qcomp=0.60 / qpmin=0 / qpmax=69 / qpstep=4 / cplxblur=20.0 / qblur=0.5 / ip_ratio=1.40 / aq=1:1.00
Language : English
Default : Yes
Forced : No
Audio #1
ID : 2
Format : AC-3
Format/Info : Audio Coding 3
Mode extension : CM (complete main)
Format settings, Endianness : Big
Codec ID : A_AC3
Duration : 2h 3mn
Bit rate mode : Constant
Bit rate : 448 Kbps
Channel(s) : 6 channels
Channel positions : Front: L C R, Side: L R, LFE
Sampling rate : 48.0 KHz
Bit depth : 16 bits
Compression mode : Lossy
Stream size : 396 MiB (18%)
Language : Russian
Default : Yes
Forced : No
Audio #2
ID : 3
Format : AC-3
Format/Info : Audio Coding 3
Mode extension : CM (complete main)
Format settings, Endianness : Big
Codec ID : A_AC3
Duration : 2h 3mn
Bit rate mode : Constant
Bit rate : 448 Kbps
Channel(s) : 6 channels
Channel positions : Front: L C R, Side: L R, LFE
Sampling rate : 48.0 KHz
Bit depth : 16 bits
Compression mode : Lossy
Stream size : 396 MiB (18%)
Default : No
Forced : No
Text #1
ID : 4
Format : UTF-8
Codec ID : S_TEXT/UTF8
Codec ID/Info : UTF-8 Plain Text
Language : Russian
Default : No
Forced : No
Text #2
ID : 5
Format : UTF-8
Codec ID : S_TEXT/UTF8
Codec ID/Info : UTF-8 Plain Text
Language : English
Default : No
Forced : No
-

Награды

Премия канала «MTV», 2001 год
Победитель (2):
• Лучшая экшн-сцена
• Лучшая мужская роль (Том Круз)
Золотая малина, 2001 год
Номинации (2):
• Худшая женская роль второго плана (Тэнди Ньютон)
• Худший римейк/сиквел

Знаете ли вы, что...

Знаете ли Вы что....
  • Персонаж Энтони Хопкинса стал единственным, кто использует фразу «миссия: невыполнима».
-Скриншоты:
     
--

Миссия: невыполнима 3 / Mission: Impossible III

Миссия: невыполнима 3 / Mission: Impossible IIIГод выпуска: 2006
Страна: США, Германия, Китай
Жанр: боевик, триллер, приключения
Продолжительность: 2:05:24
Перевод: Профессиональный (полное дублирование)
Русские субтитры: есть
Режиссер: Джей Джей Абрамс / J.J. Abrams
В ролях: Том Круз (Ethan Hunt,), Филип Сеймур Хоффман (Owen Davian), Винг Реймз (Luther Stickell), Билли Крудап (John Musgrave), Мишель Монахэн (Julia), Джонатан Риз Мейерс (Declan Gormley), Кери Рассел (Lindsey Farris), Мэгги Кью (Zhen Lei), Саймон Пегг (Benji Dunn), Эдди Марсан (Brownway), Лоренс Фишбёрн (Theodore Brassel), Бахар Сумех (Davian's Translator)
Описание: Суперагент Итан Хант решил расстаться с оперативной работой и заняться подготовкой курсантов. Он даже решил жениться на привлекательной, ни о чём не ведающей Джулии. Руководство ЦРУ просит его принять участие в последней операции: спасении его бывшей ученицы Линдси Феррис из лап торговца оружием Оуэна Дэвиана. Мог ли Итан предположить, что за этим заданием последует целая череда смертельно опасных миссий в Ватикане, Нью-Йорке и Шанхае?- -MPAA: - Детям до 13 лет просмотр не желателен--Качество видео: BDRip-AVC
Формат видео: MKV
Видео кодек: H.264
Аудио кодек: AC3
Видео: 1024x432, 29.97fps, 1723 Kbps, 0.183 bit/pixel
Аудио: 48.0 KHz, 6 ch, 384 Kbps - Rus / Eng

MediaInfo

Format : Matroska
Format version : Version 2
File size : 2.18 GiB
Duration : 2h 5mn
Overall bit rate : 2 491 Kbps
Movie name : Mission: Impossible III (2000) - The Jolly Roger by /*spam*/ [zyyx]
Encoded date : UTC 2012-11-25 09:20:12
Writing application : mkvmerge v4.9.1 ('Ich will') сборка от Aug 10 2011 09:31:20
Writing library : libebml v1.2.1 + libmatroska v1.2.0
Video
ID : 1
Format : AVC
Format/Info : Advanced Video Codec
Format profile : [email protected]
Format settings, CABAC : Yes
Format settings, ReFrames : 14 frames
Codec ID : V_MPEG4/ISO/AVC
Duration : 2h 5mn
Bit rate : 1 723 Kbps
Width : 1 024 pixels
Height : 432 pixels
Display aspect ratio : 2.40:1
Frame rate : 23.976 fps
Color space : YUV
Chroma subsampling : 4:2:0
Bit depth : 8 bits
Scan type : Progressive
Bits/(Pixel*Frame) : 0.162
Stream size : 1.47 GiB (67%)
Writing library : x264 core 125 r2200 999b753
Encoding settings : cabac=1 / ref=14 / deblock=1:-1:-1 / analyse=0x3:0x133 / me=umh / subme=11 / psy=1 / psy_rd=1.00:0.10 / mixed_ref=1 / me_range=64 / chroma_me=1 / trellis=2 / 8x8dct=1 / cqm=0 / deadzone=21,11 / fast_pskip=0 / chroma_qp_offset=-3 / threads=26 / lookahead_threads=6 / sliced_threads=0 / nr=0 / decimate=1 / interlaced=0 / bluray_compat=0 / constrained_intra=0 / bframes=8 / b_pyramid=2 / b_adapt=2 / b_bias=0 / direct=3 / weightb=1 / open_gop=0 / weightp=2 / keyint=250 / keyint_min=23 / scenecut=40 / intra_refresh=0 / rc_lookahead=50 / rc=2pass / mbtree=1 / bitrate=1723 / ratetol=1.0 / qcomp=0.60 / qpmin=0 / qpmax=69 / qpstep=4 / cplxblur=20.0 / qblur=0.5 / ip_ratio=1.40 / aq=1:1.00
Language : English
Default : Yes
Forced : No
Audio #1
ID : 2
Format : AC-3
Format/Info : Audio Coding 3
Mode extension : CM (complete main)
Format settings, Endianness : Big
Codec ID : A_AC3
Duration : 2h 5mn
Bit rate mode : Constant
Bit rate : 384 Kbps
Channel(s) : 6 channels
Channel positions : Front: L C R, Side: L R, LFE
Sampling rate : 48.0 KHz
Bit depth : 16 bits
Compression mode : Lossy
Stream size : 344 MiB (15%)
Language : Russian
Default : Yes
Forced : No
Audio #2
ID : 3
Format : AC-3
Format/Info : Audio Coding 3
Mode extension : CM (complete main)
Format settings, Endianness : Big
Codec ID : A_AC3
Duration : 2h 5mn
Bit rate mode : Constant
Bit rate : 384 Kbps
Channel(s) : 6 channels
Channel positions : Front: L C R, Side: L R, LFE
Sampling rate : 48.0 KHz
Bit depth : 16 bits
Compression mode : Lossy
Stream size : 344 MiB (15%)
Language : English
Default : No
Forced : No
Text #1
ID : 4
Format : UTF-8
Codec ID : S_TEXT/UTF8
Codec ID/Info : UTF-8 Plain Text
Language : Russian
Default : No
Forced : No
Text #2
ID : 5
Format : UTF-8
Codec ID : S_TEXT/UTF8
Codec ID/Info : UTF-8 Plain Text
Language : English
Default : No
Forced : No
-

Награды

Сатурн, 2007 год
Номинации (5):
• Лучший актер (Том Круз)
• Лучший актер второго плана (Филип Сеймур Хоффман)
• Лучший режиссер (Джей Джей Абрамс)
• Лучшие спецэффекты
• Лучший приключенческий фильм, боевик или триллер
-

Знаете ли вы, что...

Знаете ли Вы что....
  • Павильонные съемки проходили на студии «Paramount». В предыдущие 18 лет эти павильоны использовались для съемок эпизодов сериала «Star Trek».
  • В начале мая 2004 года поступило известие о том, что Том Круз (в качестве продюсера картины) сделал запрос на получение разрешения съемок в здании немецкого парламента. Круз хотел использовать для съемок созданный из стекла и стали 40-метровый купол Рейхстага. Тем не менее, запрос Тома был отклонен главой парламента, Вольфгангом Тирсе. Спикер ответил в следующем ключе: «Здание Рейхстага ни коим образом не может использоваться для съемок фильма, и мы отказываемся даже обсуждать в дальнейшем этот вопрос. Речь идет о защите достоинства нашего парламента».
  • Том Круз сделал предложение режиссеру Джо Карнахэну возглавить съемочный процесс после просмотра картины 2002 года «Наркобарон» (кстати, Круз являлся исполнительным продюсером данного фильма). Но Джо так и не удалось найти общий язык с Томом, в результате чего он и покинул проект всего за месяц до предполагаемого начала съемок (август 2004 года). Его уход задержал съемки фильма примерно на год, пока не была найдена кандидатура нового режиссера. Воспользовавшись заминкой, Том принял решение поработать со Стивеном Спилбергом над фильмом «Война миров», выход которого изначально был запланирован на 2006 год. Таким образом, произошла своеобразная рокировка.
  • Кери-Энн Мосс была предложена одна из ключевых ролей, после того как Круз ознакомился с картиной актрисы – «Охотник на убийц» 2004 года. Однако после ухода Карнахэна и появления на режиссерском мостике Джеффри Абрамса, персонаж Кери-Энн был удален из сценария.
  • Тэнди Ньютон была предложена роль Найи Нордофф Холл, но актриса отказалась от участия в проекте, предпочтя провести время в семейном кругу. Позднее этот персонаж был видоизменен и превратился в Лею Квинт, которую и должна была сыграть Кери-Энн Мосс.
  • Первым выбором Круза на режиссерскую позицию был Дэвид Финчер, однако последний предпочел выбрать другой проект – «Короли Догтауна». Впрочем, ему он также не достался.
  • Роль главного злодея мог исполнить Кеннет Брана.
  • На роль союзника Итана Ханта был выбран Рики Жервас. Позднее эта роль отошла Саймону Пеггу.
  • В фильме могла принять участие Скарлетт Йоханссон.
  • Сцена взрыва «Ламборгини» была снята вживую, но сердце машины - ее двигатель, все же предварительно вынули.
  • Две главные женские роли в фильме достались Мишель Монахан и Кери Расселл, по курьезному совпадению родившимся в один и тот же день - 23 марта 1976 года.
-Скриншоты:
     
--

Миссия: невыполнима 4 / Mission: Impossible IV

Миссия невыполнима: Протокол Фантом / Mission: Impossible - Ghost Protocol
Слоган: «Плана нет. Помощи нет. Выбора нет»
Год выпуска: 2011 г.
Производство: США, ОАЭ, Чехия
Жанр: боевик, триллер, приключения
Продолжительность: 02:05:25
Перевод: Профессиональный (полное дублирование)
Оригинальный аудиопоток: Aнглийский
Субтитры: Русские, английские
Режиссер: Брэд Бёрд / Brad Bird
В ролях: Том Круз, Пола Пэттон, Саймон Пегг, Джереми Реннер, Микаэл Нюквист, Владимир Машков, Самули Эдельманн, Анил Капур, Леа Сейду, Джош Холлоуэй
Описание: Специальный агент отряда «Миссия невыполнима» Итан Хант и его коллеги несправедливо обвинены в причастности к взрыву Кремля. Президент инициирует «Протокол Фантом», в результате которого спецподразделение ликвидировано, и Итан остается без какой-либо поддержки. Он намерен очистить свое доброе имя и предотвратить новую атаку, но делать это ему придется вместе с командой коллег, истинных мотивов которых он до конца не знает.
Качество видео: BDRip-AVC
Формат видео: MKV
Видео кодек: H.264
Аудио кодек: AC3
Видео: 1024x432, 23.976 fps, 1582 Kbps, 0.145 bit/pixel
Аудио: 48.0 KHz, 6 ch, 384 Kbps - Rus / Eng

MediaInfo

Format : Matroska
Format version : Version 2
File size : 2.18 GiB
Duration : 2h 12mn
Overall bit rate : 2 350 Kbps
Movie name : Mission: Impossible - Ghost Protocol (2011) - The Jolly Roger by /*spam*/ [zyyx]
Encoded date : UTC 2012-11-25 09:34:06
Writing application : mkvmerge v4.9.1 ('Ich will') сборка от Aug 10 2011 09:31:20
Writing library : libebml v1.2.1 + libmatroska v1.2.0
Video
ID : 1
Format : AVC
Format/Info : Advanced Video Codec
Format profile : [email protected]
Format settings, CABAC : Yes
Format settings, ReFrames : 14 frames
Codec ID : V_MPEG4/ISO/AVC
Duration : 2h 12mn
Bit rate : 1 582 Kbps
Width : 1 024 pixels
Height : 432 pixels
Display aspect ratio : 2.40:1
Frame rate : 23.976 fps
Color space : YUV
Chroma subsampling : 4:2:0
Bit depth : 8 bits
Scan type : Progressive
Bits/(Pixel*Frame) : 0.149
Stream size : 1.43 GiB (65%)
Title : JRG
Writing library : x264 core 125 r2200 999b753
Encoding settings : cabac=1 / ref=14 / deblock=1:-1:-1 / analyse=0x3:0x133 / me=umh / subme=11 / psy=1 / psy_rd=1.00:0.10 / mixed_ref=1 / me_range=64 / chroma_me=1 / trellis=2 / 8x8dct=1 / cqm=0 / deadzone=21,11 / fast_pskip=0 / chroma_qp_offset=-3 / threads=26 / lookahead_threads=6 / sliced_threads=0 / nr=0 / decimate=1 / interlaced=0 / bluray_compat=0 / constrained_intra=0 / bframes=8 / b_pyramid=2 / b_adapt=2 / b_bias=0 / direct=3 / weightb=1 / open_gop=0 / weightp=2 / keyint=250 / keyint_min=23 / scenecut=40 / intra_refresh=0 / rc_lookahead=50 / rc=2pass / mbtree=1 / bitrate=1582 / ratetol=1.0 / qcomp=0.60 / qpmin=0 / qpmax=69 / qpstep=4 / cplxblur=20.0 / qblur=0.5 / ip_ratio=1.40 / aq=1:1.00
Language : English
Default : Yes
Forced : No
Audio #1
ID : 2
Format : AC-3
Format/Info : Audio Coding 3
Mode extension : CM (complete main)
Format settings, Endianness : Big
Codec ID : A_AC3
Duration : 2h 12mn
Bit rate mode : Constant
Bit rate : 384 Kbps
Channel(s) : 6 channels
Channel positions : Front: L C R, Side: L R, LFE
Sampling rate : 48.0 KHz
Bit depth : 16 bits
Compression mode : Lossy
Stream size : 365 MiB (16%)
Language : Russian
Default : Yes
Forced : No
Audio #2
ID : 3
Format : AC-3
Format/Info : Audio Coding 3
Mode extension : CM (complete main)
Format settings, Endianness : Big
Codec ID : A_AC3
Duration : 2h 12mn
Bit rate mode : Constant
Bit rate : 384 Kbps
Channel(s) : 6 channels
Channel positions : Front: L C R, Side: L R, LFE
Sampling rate : 48.0 KHz
Bit depth : 16 bits
Compression mode : Lossy
Stream size : 365 MiB (16%)
Language : English
Default : No
Forced : No
Text #1
ID : 4
Format : UTF-8
Codec ID : S_TEXT/UTF8
Codec ID/Info : UTF-8 Plain Text
Language : Russian
Default : No
Forced : No
Text #2
ID : 5
Format : UTF-8
Codec ID : S_TEXT/UTF8
Codec ID/Info : UTF-8 Plain Text
Language : English
Default : No
Forced : No
     
Вне форума [Профиль] [ЛС]
Похожие темы
Форум Тема Автор Торрент Отв. Посл. сообщение
./templates/default/images/folder_dl.gif Новинки (HD|DVD|BD|WEB|TV|SAT|PDTV|-Rip) Миссия невыполнима: Последствия / Mission: Impossible - Fallout (Кристофер МакКуорри) [2018 г., боевик, триллер, приключения, WEBRip] MVO | MUZOBOZ Theseus
1 | 0

0 | 635

10

2018-09-15 14:33
Theseus Последнее
./templates/default/images/folder_dl.gif Новинки (BD|HDTV|DVD) Миссия невыполнима: Последствия / Mission: Impossible - Fallout (Кристофер МакКуорри) [2018 г., боевик, триллер, приключения, HDTVRip 1080p] MVO | MUZOBOZ Theseus
1 | 0

0 | 734

12

2018-09-15 14:49
Theseus Последнее
Показать сообщения:    
Ответить на тему

Текущее время: Сегодня 03:59

Часовой пояс: GMT + 3



Вы не можете начинать темы
Вы не можете отвечать на сообщения
Вы не можете редактировать свои сообщения
Вы не можете удалять свои сообщения
Вы не можете голосовать в опросах
Вы не можете прикреплять файлы к сообщениям
Вы не можете скачивать файлы