Today is a free download without charge Download

Айнудизм (аменция с аутизмом в квадрате) (Сергей Айнутдинов) [1994, Рисованный мультфильм, SATRip]

Reply to topic
 
Author
Message

Omen ®

Longevity: 7 years 11 months

Posts: 181087

Торрент-статистика

Post 29-Mar-2014 23:00

[Quote]

Айнудизм (аменция с аутизмом в квадрате)
Страна: Россия
Жанр: Рисованный мультфильм
Продолжительность: 00:16:34
Год выпуска: 1994
Русские субтитры: нет
Режиссёр: Сергей Айнутдинов
Описание: 3-я серия из философской анимационной трилогии. Об оживших рисунках, человечной Смерти и докторах-убийцах. Невесёлый портрет нашего абсурдного мира... Наблюдение общества шестидесятых, семидесятых и восьмидесятых, сделанное посредством средств оживления. (для взрослых)
Доп. информация: «Свердловская киностудия»
Сценарий: С.Айнутдинов
Аниматоры: Н.Беликова,В.Бурмистров,А.Евладов,Д.Ганиева
Оператор:В.Константинов,С.Решетников,В.Сумин
Монтаж:Л.Путятина
Релиз группы:
Качество: SATRip
Формат: AVI
Видео: 704x528 (1.33:1), 25 fps, XviD MPEG-4 ~2148 kbps avg, 0.23 bit/pixel
Аудио: 48 kHz, AC3 Dolby Digital, 2/0 (L,R) ch, ~192.00 kbps avg
Субтитры: нет

Подробные технические данные

Format : AVIFormat/Info : Audio Video InterleaveFile size : 279 MiBDuration : 16mn 34sOverall bit rate : 2 350 KbpsWriting application : VirtualDubModRus 1.5.10.2 (build 2542/release)Copyright : Rutracker.orgComment : SATRip by dvdss
VideoID : 0Format : MPEG-4 VisualFormat profile : Advanced [email protected] settings, BVOP : 2Format settings, QPel : NoFormat settings, GMC : No warppointsFormat settings, Matrix : CustomCodec ID : XVIDCodec ID/Hint : XviDDuration : 16mn 34sBit rate : 2 149 KbpsWidth : 704 pixelsHeight : 528 pixelsDisplay aspect ratio : 1.222Original display aspect ratio : 4:3Frame rate : 25.000 fpsColor space : YUVChroma subsampling : 4:2:0Bit depth : 8 bitsScan type : ProgressiveCompression mode : LossyBits/(Pixel*Frame) : 0.231Stream size : 255 MiB (91%)Writing library : XviD 65
AudioID : 1Format : AC-3Format/Info : Audio Coding 3Mode extension : CM (complete main)Format settings, Endianness : BigCodec ID : 2000Duration : 16mn 34sBit rate mode : ConstantBit rate : 192 KbpsChannel(s) : 2 channelsChannel positions : Front: L RSampling rate : 48.0 KHzBit depth : 16 bitsCompression mode : LossyStream size : 22.8 MiB (8%)Alignment : Split accross interleavesInterleave, duration : 40 ms (1.00 video frame)Interleave, preload duration : 500 ms

Скриншоты

Other forum [Profile] [PM]
Display posts from previous:    
Reply to topic

The time now is: Today 02:34

All times are GMT + 3 Hours



You cannot post new topics in this forum
You cannot reply to topics in this forum
You cannot edit your posts in this forum
You cannot delete your posts in this forum
You cannot vote in polls in this forum
You cannot attach files in this forum
You cannot download files in this forum