Сегодня идет свободное скачивание без начисления Download

Лара Крофт: Расхитительница гробниц / Lara Croft: Tomb Raider (2001-2003) BDRip [1080p] [hand made 60fps] [Дилогия]

Ответить на тему
 
Автор
Сообщение

Varius ®

Пол:

Стаж: 8 лет 5 месяцев

Сообщений: 2681

Откуда: Hell

Торрент-статистика

Пост 28-Мар-2014 23:12

[Цитировать]

Лара Крофт: Расхитительница гробниц / Lara Croft: Tomb Raider (2001-2003) BDRip [1080p] [hand made 60fps] [Дилогия]-Лара Крофт: Расхитительница гробниц / Lara Croft: Tomb Raider-Оригинальное название: Lara Croft: Tomb Raider
Год выпуска: 2001
Жанр: Фэнтези, Боевик, Приключения
Производство: США
Описание фильма:
Она — само совершенство! На нашей планете нет женщины, которая могла бы сравниться с ней. Она — божественно прекрасна, невероятно умна и потрясающе отважна. Она владеет всеми видами рукопашного боя, изумительно стреляет из любых видов оружия и способна выжить в самых экстремальных условиях.
Эта девушка — дочь лорда. Ее имя — леди Лара Крофт. И пусть трепещут злодеи, которые попытаются встать у нее на пути…
Режиссер: Саймон Уэст
Актеры: Анджелина Джоли, Джон Войт, Айэйн Глен, Ноа Тейлор, Дэниэл Крэйг, Ричард Джонсон, Крис Барри, Джулиан Райнд-Татт, Лесли Филлипс, Роберт Филлипс
Продолжительность: 01:40:32
Качество видео: BDRip
Перевод: Дублированный
Язык субтитров: Rus (полные), Eng (полные)
Вид субтитров: Вшитые

Видеокодек: MPEG-4 AVC/H.264
Битрейт видео: ~16000 kb/s
Размер кадра: 1920*808
Аудио 1 Русский: AC3 5.1, 448 kb/s
Аудио 2 Английский: AC3 5.1, 640 kb/s
Сэмпл: Ссылка

Внимание!

Перед скачиванием обязательно проверьте Сэмпл на своем оборудовании.

Рецензия, отзыв о фильме

В 2,5 раза больше кадров!
В 2,5 раза больше исходника (1080p BDrip)!
В 2,5 раза плавнее! (59,94 fps)
Приятного просмотра.

Как сделать hand made 60fps

[url=/forum/viewtopic.php?p=6351833#6351833]Как сделать видео 60fps [hand made 60fps][/url]

MI

Общее
Уникальный идентификатор : 224700697407550587952110237179290496909 (0xA90BC7B8F8AE3686ACA48C6A5B66AF8D)
Полное имя : F:\Лара Крофт\Лара Крофт 1 Расхитительница гробниц.mkv
Формат : Matroska
Версия формата : Version 4 / Version 2
Размер файла : 12,0 Гбайт
Продолжительность : 1 ч. 40 м.
Общий поток : 17,1 Мбит/сек
Дата кодирования : UTC 2014-03-22 11:26:10
Программа кодирования : mkvmerge v6.8.0 ('Theme for Great Cities') 64bit built on Mar 2 2014 21:34:26
Библиотека кодирования : libebml v1.3.0 + libmatroska v1.4.1
Видео
Идентификатор : 1
Формат : AVC
Формат/Информация : Advanced Video Codec
Профиль формата : [url=mailto:[email protected]][email protected][/url]
Параметр CABAC формата : Да
Параметр ReFrames формата : 5 кадров
Идентификатор кодека : V_MPEG4/ISO/AVC
Продолжительность : 1 ч. 40 м.
Битрейт : 16,0 Мбит/сек
Ширина : 1920 пикселей
Высота : 808 пикселей
Соотношение сторон : 2,40:1
Режим частоты кадров : Постоянный
Частота кадров : 59,880 кадров/сек
Частота кадров в оригинале : 59,940 кадров/сек
Цветовое пространство : YUV
Субдискретизация насыщенности : 4:2:0
Битовая глубина : 8 бит
Тип развёртки : Прогрессивная
Бит/(Пиксели*Кадры) : 0.172
Размер потока : 11,0 Гбайт (92%)
Библиотека кодирования : x264 core 130 r2273 b3065e6
Настройки программы : cabac=1 / ref=5 / deblock=1:-1:-1 / analyse=0x3:0 / me=umh / subme=9 / psy=1 / psy_rd=1.00:0.10 / mixed_ref=1 / me_range=24 / chroma_me=0 / trellis=1 / 8x8dct=1 / cqm=0 / deadzone=21,11 / fast_pskip=0 / chroma_qp_offset=-3 / threads=6 / lookahead_threads=1 / sliced_threads=0 / nr=0 / decimate=0 / interlaced=0 / bluray_compat=0 / constrained_intra=0 / bframes=5 / b_pyramid=2 / b_adapt=2 / b_bias=0 / direct=3 / weightb=1 / open_gop=0 / weightp=2 / keyint=250 / keyint_min=25 / scenecut=40 / intra_refresh=0 / rc=2pass / mbtree=0 / bitrate=16000 / ratetol=1.0 / qcomp=0.60 / qpmin=0 / qpmax=69 / qpstep=4 / cplxblur=20.0 / qblur=0.5 / ip_ratio=1.40 / pb_ratio=1.30 / aq=1:0.90
Язык : English
Default : Да
Forced : Нет
Аудио #1
Идентификатор : 2
Формат : AC-3
Формат/Информация : Audio Coding 3
Расширение режима : CM (complete main)
Параметр Endianness формата : Big
Идентификатор кодека : A_AC3
Продолжительность : 1 ч. 40 м.
Вид битрейта : Постоянный
Битрейт : 448 Кбит/сек
Каналы : 6 каналов
Расположение каналов : Front: L C R, Side: L R, LFE
Частота : 48,0 КГц
Битовая глубина : 16 бит
Метод сжатия : С потерями
Размер потока : 322 Мбайт (3%)
Заголовок : Dub
Язык : Russian
Default : Да
Forced : Нет
Аудио #2
Идентификатор : 3
Формат : AC-3
Формат/Информация : Audio Coding 3
Расширение режима : CM (complete main)
Параметр Endianness формата : Big
Идентификатор кодека : A_AC3
Продолжительность : 1 ч. 40 м.
Вид битрейта : Постоянный
Битрейт : 640 Кбит/сек
Каналы : 6 каналов
Расположение каналов : Front: L C R, Side: L R, LFE
Частота : 48,0 КГц
Битовая глубина : 16 бит
Метод сжатия : С потерями
Размер потока : 460 Мбайт (4%)
Заголовок : Original
Язык : English
Default : Нет
Forced : Нет
Текст #1
Идентификатор : 4
Формат : UTF-8
Идентификатор кодека : S_TEXT/UTF8
Идентификатор кодека/Информация : UTF-8 Plain Text
Заголовок : Full
Язык : Russian
Default : Нет
Forced : Нет
Текст #2
Идентификатор : 5
Формат : UTF-8
Идентификатор кодека : S_TEXT/UTF8
Идентификатор кодека/Информация : UTF-8 Plain Text
Заголовок : Full
Язык : English
Default : Нет
Forced : Нет
Меню
00:00:00.000 : :Chapter 01
00:07:22.817 : :Chapter 02
00:15:04.361 : :Chapter 03
00:23:16.353 : :Chapter 04
00:34:45.666 : :Chapter 05
00:43:10.546 : :Chapter 06
00:50:03.834 : :Chapter 07
00:59:46.124 : :Chapter 08
01:07:53.652 : :Chapter 09
01:15:58.845 : :Chapter 10
01:22:32.280 : :Chapter 11
01:31:22.894 : :Chapter 12
Скриншоты:
       
Время раздачи: 24/7 до 07.04.2014-Лара Крофт: Расхитительница гробниц 2 – Колыбель жизни / Lara Croft Tomb Raider: The Cradle of Life-Оригинальное название: Lara Croft Tomb Raider: The Cradle of Life
Год выпуска: 2003
Жанр: Фэнтези, Боевик, Приключения
Производство: США, Германия, Япония, Великобритания
Описание фильма:
Во второй серии приключений прекрасной расхитительницы гробниц Лары Крофт география действия становится ещё обширней и экзотичней. Ларе предстоит побывать в Греции, Кении, Танзании, Гонконге и Китае, и, разумеется, не для того, чтобы оценить местные красоты.
Она будет противостоять злодею-интеллектуалу Чену Ло, возглавляющему китайский преступный синдикат. Ло, искусный бизнесмен и хладнокровный убийца, замыслил украсть мифический Ящик Пандоры из ушедшего под воду храма, чтобы использовать его как оружие Судного дня…
Режиссер: Ян де Бонт
Актеры: Анджелина Джоли, Джерард Батлер, Киаран Хайндс, Крис Барри, Ноа Тейлор, Джимон Хонсу, Тиль Швайгер, Саймон Ям, Теренс Йин, Даниэль Кальтаджироне
Продолжительность: 01:57:19
Качество видео: BDRip
Перевод: Дублированный
Язык субтитров: Rus (полные), Eng (полные)
Вид субтитров: Вшитые

Видеокодек: MPEG-4 AVC/H.264
Битрейт видео: ~16000 kb/s
Размер кадра: 1920*816
Аудио 1 Русский: AC3 5.1, 448 kb/s
Аудио 2 Английский: AC3 5.1, 640 kb/s
Сэмпл: Ссылка

Внимание!

Перед скачиванием обязательно проверьте Сэмпл на своем оборудовании.

Рецензия, отзыв о фильме

В 2,5 раза больше кадров!
В 2,5 раза больше исходника (1080p BDrip)!
В 2,5 раза плавнее! (59,94 fps)
Приятного просмотра.

Как сделать hand made 60fps

[url=/forum/viewtopic.php?p=6351833#6351833]Как сделать видео 60fps [hand made 60fps][/url]

MI

Общее
Уникальный идентификатор : 230346323231998144479910852691578352199 (0xAD4B1690F22DEF4793B058EFA0587247)
Полное имя : F:\Лара Крофт\Лара Крофт 2 Колыбель жизни.mkv
Формат : Matroska
Версия формата : Version 4 / Version 2
Размер файла : 13,8 Гбайт
Продолжительность : 1 ч. 57 м.
Общий поток : 16,9 Мбит/сек
Дата кодирования : UTC 2014-03-23 02:31:04
Программа кодирования : mkvmerge v6.8.0 ('Theme for Great Cities') 64bit built on Mar 2 2014 21:34:26
Библиотека кодирования : libebml v1.3.0 + libmatroska v1.4.1
Видео
Идентификатор : 1
Формат : AVC
Формат/Информация : Advanced Video Codec
Профиль формата : [url=mailto:[email protected]][email protected][/url]
Параметр CABAC формата : Да
Параметр ReFrames формата : 5 кадров
Идентификатор кодека : V_MPEG4/ISO/AVC
Продолжительность : 1 ч. 57 м.
Битрейт : 16,0 Мбит/сек
Ширина : 1920 пикселей
Высота : 816 пикселей
Соотношение сторон : 2,35:1
Режим частоты кадров : Постоянный
Частота кадров : 59,880 кадров/сек
Частота кадров в оригинале : 59,940 кадров/сек
Цветовое пространство : YUV
Субдискретизация насыщенности : 4:2:0
Битовая глубина : 8 бит
Тип развёртки : Прогрессивная
Бит/(Пиксели*Кадры) : 0.171
Размер потока : 12,8 Гбайт (93%)
Библиотека кодирования : x264 core 130 r2273 b3065e6
Настройки программы : cabac=1 / ref=5 / deblock=1:-1:-1 / analyse=0x3:0 / me=umh / subme=9 / psy=1 / psy_rd=1.00:0.10 / mixed_ref=1 / me_range=24 / chroma_me=0 / trellis=1 / 8x8dct=1 / cqm=0 / deadzone=21,11 / fast_pskip=0 / chroma_qp_offset=-3 / threads=6 / lookahead_threads=1 / sliced_threads=0 / nr=0 / decimate=0 / interlaced=0 / bluray_compat=0 / constrained_intra=0 / bframes=5 / b_pyramid=2 / b_adapt=2 / b_bias=0 / direct=3 / weightb=1 / open_gop=0 / weightp=2 / keyint=250 / keyint_min=25 / scenecut=40 / intra_refresh=0 / rc=2pass / mbtree=0 / bitrate=16000 / ratetol=1.0 / qcomp=0.60 / qpmin=0 / qpmax=69 / qpstep=4 / cplxblur=20.0 / qblur=0.5 / ip_ratio=1.40 / pb_ratio=1.30 / aq=1:0.90
Язык : English
Default : Да
Forced : Нет
Аудио #1
Идентификатор : 2
Формат : AC-3
Формат/Информация : Audio Coding 3
Расширение режима : CM (complete main)
Параметр Endianness формата : Big
Идентификатор кодека : A_AC3
Продолжительность : 1 ч. 57 м.
Вид битрейта : Постоянный
Битрейт : 448 Кбит/сек
Каналы : 6 каналов
Расположение каналов : Front: L C R, Side: L R, LFE
Частота : 48,0 КГц
Битовая глубина : 16 бит
Метод сжатия : С потерями
Размер потока : 376 Мбайт (3%)
Заголовок : Dub
Язык : Russian
Default : Да
Forced : Нет
Аудио #2
Идентификатор : 3
Формат : AC-3
Формат/Информация : Audio Coding 3
Расширение режима : CM (complete main)
Параметр Endianness формата : Big
Идентификатор кодека : A_AC3
Продолжительность : 1 ч. 57 м.
Вид битрейта : Постоянный
Битрейт : 448 Кбит/сек
Каналы : 6 каналов
Расположение каналов : Front: L C R, Side: L R, LFE
Частота : 48,0 КГц
Битовая глубина : 16 бит
Метод сжатия : С потерями
Размер потока : 376 Мбайт (3%)
Заголовок : Original
Язык : English
Default : Нет
Forced : Нет
Текст #1
Идентификатор : 4
Формат : UTF-8
Идентификатор кодека : S_TEXT/UTF8
Идентификатор кодека/Информация : UTF-8 Plain Text
Заголовок : Full
Язык : Russian
Default : Нет
Forced : Нет
Текст #2
Идентификатор : 5
Формат : UTF-8
Идентификатор кодека : S_TEXT/UTF8
Идентификатор кодека/Информация : UTF-8 Plain Text
Заголовок : Full
Язык : English
Default : Нет
Forced : Нет
Меню
00:00:00.000 : :Chapter 01
00:10:21.287 : :Chapter 02
00:16:53.137 : :Chapter 03
00:20:39.238 : :Chapter 04
00:27:42.077 : :Chapter 05
00:37:13.397 : :Chapter 06
00:42:44.144 : :Chapter 07
00:47:57.708 : :Chapter 08
00:56:08.531 : :Chapter 09
01:02:50.808 : :Chapter 10
01:10:01.197 : :Chapter 11
01:19:36.188 : :Chapter 12
01:27:25.740 : :Chapter 13
01:35:56.208 : :Chapter 14
01:40:22.516 : :Chapter 15
01:47:52.966 : :Chapter 16
Скриншоты:
       

_________________

Создавая "Новую папку", не считайте себя Создателем - это право Вам дано Админом


Вне форума [Профиль] [ЛС]
Показать сообщения:    
Ответить на тему

Текущее время: Сегодня 06:26

Часовой пояс: GMT + 3



Вы не можете начинать темы
Вы не можете отвечать на сообщения
Вы не можете редактировать свои сообщения
Вы не можете удалять свои сообщения
Вы не можете голосовать в опросах
Вы не можете прикреплять файлы к сообщениям
Вы не можете скачивать файлы