Today is a free download without charge Download

Любовь приходит не одна (Светлана Музыченко) [2011, Россия, мелодрама, DVD5] R5 Original Rus [«Lizard Cinema Trade»]

Reply to topic
 
Author
Message

Relizer ®

Gender:

Longevity: 9 years 9 months

Posts: 233

Торрент-статистика

Post 10-Dec-2011 15:40

[Quote]

-Любовь приходит не одна -Страна: Россия
Студия: Про100 Фильм
Жанр: мелодрама
Год выпуска: 2011
Российская премьера: 3 апреля 2011
Дата выхода DVD: 31 мая 2011, «Lizard Cinema Trade»
Продолжительность: 01:31:10
Перевод: Оригинал [Лицензия]
Cубтитры: нет
Оригинальная аудиодорожка: русский-Режиссер: Светлана Музыченко-В ролях: Наталия Антонова, Андрей Ильин, Игорь Верник, Анна Халилулина, Ольга Хохлова, Елизавета Водолазская, Валентина Грушина, Андрей Москвичев, Мария Померанцева, Ольга Матушкина-Описание: Ирина — 45-летняя женщина, муж которой ушел из семьи к молодой девушке Алене. Для Ирины это серьезный удар, ведь ей не удалось обзавестись собственными детьми. Однако ее мужу Олегу новая любовь надоедает быстро, он хочет вернуться назад. Теперь настало время расплатиться за грехи Алене. У девушки не выдерживают нервы, она выбрасывается из окна, но, к счастью, остается жива. В больнице выясняется, что она беременна. На защиту личного счастья Алены встает ее отец — Иван Сметанин. Он пытается убедить Ирину отпустить Олега. Ирина проникается искренней жалостью к Алене и… влюбляется в ее отца.-Бонусы: нет- -Релиз группы: -Качество: DVD5 R5
Формат: DVD-Video
Видео кодек: MPEG2
Аудио кодек: AC3
Видео: PAL 16:9 (720x576(0.534)) MPEG Video, 25,000 кадр/сек, 5536 Кбит/сек
Аудио #1: Russian (Dolby AC3, 6 ch) 448 Кбит/сек, 48,0 КГц
Аудио #2: Russian (Dolby AC3, 2 ch) 192 Кбит/сек, 48,0 КГц--

DVDInfo

Title:
Size: 4.18 Gb ( 4 388 080 KBytes ) - DVD-5
Enabled regions: 1, 2, 3, 4, 5, 6, 7, 8
VTS_01 :
Play Length: 00:00:25
Video: PAL 4:3 (720x576) VBR
Audio:
Russian (Dolby AC3, 6 ch)
VTS_02 :
Play Length: 01:31:10
Video: PAL 16:9 (720x576) VBR, Auto Pan&Scan, Auto Letterboxed
Audio:
Russian (Dolby AC3, 6 ch)
Russian (Dolby AC3, 2 ch)
Menu Video:
PAL 4:3 (720x576) VBR
Menu English Language Unit :
Root Menu
Chapter (PTT) Menu
Audio Menu

MediaInfo

Общее
Полное имя : G:\Новинки 2011\Ljubov.prihodit.ne.odna.2011.DVD5\VIDEO_TS\VTS_02_1.VOB
Формат : MPEG-PS
Размер файла : 1024 Мбайт
Продолжительность : 22 м.
Общий поток : 6301 Кбит/сек
Видео
Идентификатор : 224 (0xE0)
Формат : MPEG Video
Версия формата : Version 2
Профиль формата : [email protected]
Параметр BVOP формата : Да
Параметр матрицы формата : Выборочная
Продолжительность : 22 м.
Вид битрейта : Переменный
Битрейт : 5536 Кбит/сек
Максимальный битрейт : 8500 Кбит/сек
Ширина : 720 пикселей
Высота : 576 пикселей
Соотношение сторон : 16:9
Частота кадров : 25,000 кадров/сек
Стандарт вещания : PAL
Цветовое пространство : YUV
Субдискретизация насыщенности : 4:2:0
Битовая глубина : 8 бит
Тип развёртки : Чересстрочная
Порядок развёртки : Верхнее поле первое
Метод сжатия : С потерями
Бит/(Пиксели*Кадры) : 0.534
Размер потока : 900 Мбайт (88%)
Аудио #1
Идентификатор : 189 (0xBD)-128 (0x80)
Формат : AC-3
Формат/Информация : Audio Coding 3
Расширение режима : CM (complete main)
Режим смешивания : DVD-Video
Продолжительность : 22 м.
Вид битрейта : Постоянный
Битрейт : 448 Кбит/сек
Каналы : 6 каналов
Расположение каналов : Front: L C R, Side: L R, LFE
Частота : 48,0 КГц
Битовая глубина : 16 бит
Метод сжатия : С потерями
Размер потока : 72,8 Мбайт (7%)
Аудио #2
Идентификатор : 189 (0xBD)-129 (0x81)
Формат : AC-3
Формат/Информация : Audio Coding 3
Расширение режима : CM (complete main)
Режим смешивания : DVD-Video
Продолжительность : 22 м.
Вид битрейта : Постоянный
Битрейт : 192 Кбит/сек
Каналы : 2 канала
Расположение каналов : Front: L R
Частота : 48,0 КГц
Битовая глубина : 16 бит
Метод сжатия : С потерями
Размер потока : 31,2 Мбайт (3%)

Скриншоты фильма

     

_________________
Хк Локомотив #52# Макс ты был моим замечательным другом, пусть земля будет тебе пухом.. #52#07/09/2011- Обращаться с девочкой надо аккуратно, как с ёлочкой...Вырубить и отнести домой:)
Other forum [Profile] [PM]
Similar theme
Forum Topic Author Torrent Replies Last Post
./templates/default/images/folder_dl.gif Обучающая и научно-популярная литература Димитрий Семеник | Наполни жизнь любовью [2010] [MP3] Omen
1 | 0

0 | 1867

6

2013-01-14 21:04
Omen Latest
./templates/default/images/folder_dl.gif Приключения и квесты Mahjong Detective: The Stolen Love / Маджонг Детектив. Похищенная Любовь [P] [RUS] (2015) Omen
2 | 0

0 | 1879

24

2015-06-08 21:00
Omen Latest
Display posts from previous:    
Reply to topic

The time now is: Today 14:05

All times are GMT + 3 Hours



You cannot post new topics in this forum
You cannot reply to topics in this forum
You cannot edit your posts in this forum
You cannot delete your posts in this forum
You cannot vote in polls in this forum
You cannot attach files in this forum
You cannot download files in this forum