Today is a free download without charge Download

Утомлённые солнцем 2 / Серии: 1-13 из 13 (Никита Михалков) [2011, военный, драма, DVB]

Reply to topic
 
Author
Message

nsa1977 ®

Gender:

Longevity: 11 years

Posts: 1470

Location: Пенза

Торрент-статистика

Post 10-Dec-2011 15:25

[Quote]

Утомлённые солнцем 2
Серии: 1-13 из 13

Год выпуска: 2011
Производство: студия "ТриТэ"
Жанр: военный, драма
Продолжительность: 00:44:00
Субтитры: нет
Режиссёр: Никита Михалков--В ролях: Никита Михалков, Олег Меньшиков, Надежда Михалкова, Виктория Толстоганова, Сергей Маковецкий, Дмитрий Дюжев, Артур Смольянинов, Евгений Миронов, Андрей Мерзликин, Андрей Панин, Сергей Гармаш, Валерий Золотухин, Мария Шукшина, Валентин Гафт, Даниил Спиваковский, Владимир Ильин, Алексей Петренко, Александр Адабашьян, Алексей Булдаков, Александр Пашутин, Инна Чурикова, Анна Михалкова, Павел Деревянко, Евгений Стычкин, Артем Михалков, Роман Мадянов, Эвелина Сакуро, Сергей Бачурский, Нина Архипова, Алла Казанская, Сергей Степанченко, Александр Фисенко, Зоя Буряк, Владлен Давыдов--Описание: События разворачиваются спустя 5-7 лет после событий 1936 года во время Великой Отечественной войны.
По всем документам комдив Котов числится расстрелянным, однако он выжил и продолжает отбывать свой срок в концлагере. Его жена Маруся по-прежнему живёт на подмосковной даче со своими стариками. Дочь Надя стала пионеркой, но по-прежнему не верит в смерть отца.
Война изменит жизнь героев. Комдив Котов после сталинских лагерей попадает в штрафбат, повзрослевшая Надя служит в медсанчасти, а Митя вновь становится на пути бывшего комдива и теперь шансов выжить у него практически нет...
Герои первого фильма проходят сквозь пекло Великой Отечественной войны, чтобы найти друг друга и попытаться вновь стать счастливыми.--Сэмпл--Качество: DVB (Express AM2 80E)
Формат: MPEG-PS
Видео кодек: MPEG2
Аудио кодек: MPEG1 Layer 2
Видео: MPEG 2, 720x576 (4:3), 25.000 fps, 5389 Kbps (0.520 bit/pixel)
Аудио: MP2, 48.0 KHz, 2 ch, 256 Kbps, CBR--

MediaInfo

Код:
Общее
Полное имя                       : H:\Раздачи\Утомлённые солнцем 2\Фильм 1 - Предстояние\01 серия.mpg
Формат                           : MPEG-PS
Размер файла                     : 1,81 Гбайт
Продолжительность                : 44 м.
Режим общего битрейта            : Переменный
Общий поток                      : 5760 Кбит/сек
Библиотека кодирования           : (c) 1998-2011 Womble Multimedia, Inc. / MPEG Video Wizard DVD 5.0.1.100 (03/2011) / Sep  8 2011
Видео
Идентификатор                    : 224 (0xE0)
Формат                           : MPEG Video
Версия формата                   : Version 2
Профиль формата                  : [email protected]
Параметр BVOP формата            : Да
Параметр матрицы формата         : Выборочная
Параметр GOP формата             : M=2, N=12
Продолжительность                : 44 м.
Вид битрейта                     : Переменный
Битрейт                          : 5389 Кбит/сек
Максимальный битрейт             : 10000 Кбит/сек
Ширина                           : 720 пикселей
Высота                           : 576 пикселей
Соотношение сторон               : 4:3
Частота кадров                   : 25,000 кадров/сек
Стандарт вещания                 : PAL
Цветовое пространство            : YUV
Субдискретизация насыщенности    : 4:2:0
Битовая глубина                  : 8 бит
Тип развёртки                    : Чересстрочная
Порядок развёртки                : Верхнее поле первое
Метод сжатия                     : С потерями
Бит/(Пиксели*Кадры)              : 0.520
Размер потока                    : 1,69 Гбайт (94%)
Библиотека кодирования           : (c) 1998-2011 Womble Multimedia, Inc. / MPEG Video Wizard DVD 5.0.1.100 (03/2011) / Sep  8 2011
Аудио
Идентификатор                    : 192 (0xC0)
Формат                           : MPEG Audio
Версия формата                   : Version 1
Профиль формата                  : Layer 2
Продолжительность                : 44 м.
Вид битрейта                     : Постоянный
Битрейт                          : 256 Кбит/сек
Каналы                           : 2 канала
Частота                          : 48,0 КГц
Метод сжатия                     : С потерями
Размер потока                    : 82,3 Мбайт (4%)
Меню
-          

_________________
Other forum [Profile] [PM]
Display posts from previous:    
Reply to topic

The time now is: Today 12:13

All times are GMT + 3 Hours



You cannot post new topics in this forum
You cannot reply to topics in this forum
You cannot edit your posts in this forum
You cannot delete your posts in this forum
You cannot vote in polls in this forum
You cannot attach files in this forum
You cannot download files in this forum