Today is a free download without charge Download

Кортик (1973) DVD5(1-3 серии из 3)

Reply to topic
 
Author
Message

Varius ®

Gender:

Longevity: 11 years

Posts: 2428

Location: Hell

Торрент-статистика

Post 10-Dec-2011 11:19

[Quote]

Кортик (1973) DVD5(1-3 серии из 3)- Русское название: Кортик
Год выпуска: 1973
Жанр: Приключения, Детский
Фильм не реставрирован
Описание фильма:
Детский приключенческий телефильм по одноименному роману Анатолия Рыбакова. Пионеры 20-х годов пытаются раскрыть тайну морского кортика, хранящего шифрованное послание. Но при этом им приходится то и дело вступать в противостояние с бандитами...
Режиссер: Николай Калинин
Актеры: Зоя Федорова, Эммануил Виторган, Леонид Кмит, Роман Филиппов, Виктор Сергачев, Наталья Чемодурова, Сергей Шевкуненко, Игорь Шульженко, Михаил Голубович, Владимир Дичковский
Продолжительность: 03:28:15

Видеокодек: MPEG-2
Битрейт видео: ~2520kb/s
Размер кадра: PAL 4:3 (720x576) VBR
Качество видео: DVD5
Аудиокодек: AC3 2.0
Битрейт аудио: 224kb/s VBR

DVDInfo

Title: Локальный диск
Size: 4.36 Gb ( 4 573 280 KBytes ) - DVD-5
Enabled regions: 1, 2, 3, 4, 5, 6, 7, 8
VTS_01 :
Play Length: 02:18:56+01:09:19
Video: PAL 4:3 (720x576) VBR
Audio:
Russian (Dolby AC3, 2 ch)

MediaInfo

Общее
Полное имя : D:\Фильмы\Kortik\VIDEO_TS\VTS_01_1.VOB
Формат : MPEG-PS
Размер файла : 1024 Мбайт
Продолжительность : 51 м.
Режим общего битрейта : Переменный
Общий поток : 2800 Кбит/сек
Видео
Идентификатор : 224 (0xE0)
Формат : MPEG Video
Версия формата : Version 2
Профиль формата : [email protected]
Параметр BVOP формата : Да
Параметр матрицы формата : Выборочная
Продолжительность : 51 м.
Вид битрейта : Переменный
Битрейт : 2520 Кбит/сек
Максимальный битрейт : 6315 Кбит/сек
Ширина : 720 пикселей
Высота : 576 пикселей
Соотношение сторон : 4:3
Частота кадров : 25,000 кадров/сек
Стандарт вещания : PAL
Цветовое пространство : YUV
Субдискретизация насыщенности : 4:2:0
Битовая глубина : 8 бит
Тип развёртки : Чересстрочная
Порядок развёртки : Нижнее поле первое
Метод сжатия : С потерями
Бит/(Пиксели*Кадры) : 0.243
Размер потока : 922 Мбайт (90%)
Аудио
Идентификатор : 189 (0xBD)-128 (0x80)
Формат : AC-3
Формат/Информация : Audio Coding 3
Расширение режима : CM (complete main)
Режим смешивания : DVD-Video
Продолжительность : 51 м.
Вид битрейта : Постоянный
Битрейт : 224 Кбит/сек
Каналы : 2 канала
Расположение каналов : Front: L R
Частота : 48,0 КГц
Битовая глубина : 16 бит
Метод сжатия : С потерями
Размер потока : 81,9 Мбайт (8%)
Меню

Дополнительных материалов:

-нет
Скриншоты:
       
       

_________________

Создавая "Новую папку", не считайте себя Создателем - это право Вам дано Админом


Other forum [Profile] [PM]

Dracula

Longevity: 7 years 11 months

Posts: 11009

Торрент-статистика

Post 10-Dec-2011 22:58 (after 11 hours)

Топик был перенесен из форума Советское кино в форум Наше кино (DVD)

Delia
 
Display posts from previous:    
Reply to topic

The time now is: Today 14:14

All times are GMT + 3 Hours



You cannot post new topics in this forum
You cannot reply to topics in this forum
You cannot edit your posts in this forum
You cannot delete your posts in this forum
You cannot vote in polls in this forum
You cannot attach files in this forum
You cannot download files in this forum