Today is a free download without charge Download

Бронзовая птица (1974) DVD5(1-3 серии из 3)

Reply to topic
 
Author
Message

Varius ®

Gender:

Longevity: 11 years

Posts: 2428

Location: Hell

Торрент-статистика

Post 10-Dec-2011 11:17

[Quote]

Бронзовая птица (1974) DVD5(1-3 серии из 3)- Русское название: Бронзовая птица
Год выпуска: 1974
Жанр: Приключения, Детский
Фильм не реставрирован
Описание фильма:
Продолжение приключений Миши Полякова, Генки, Славки и их друзей - второй фильм трилогии "Кортик / Бронзовая птица / Последнее лето детства" . Действие фильма происходит в Рязанской губернии в 1923 году, если судить по книге (в фильме год не упоминается). Главные герои летом отправляются отдыхать в пионерский лагерь, который был разбит недалеко от старинного поместья помещиков Карагаевых. С этим родом связана легенда, согласно которой граф Карагаев спрятал где-то в окрестностях поместья крупный бриллиант и клад. Юные пионеры находят клад, попутно раскрывая преступление, связанное с убийством крестьянина Кузьмина…
Режиссер: Николай Калинин
Актеры: Сергей Шевкуненко, Владимир Дичковский, Игорь Шульженко, Мария Капнист-Серко, Юрий Сидоров, Виктор Чекмарёв, Николай Кузьмин, Олег Севастьянов, Августин Милованов, Николай Крюков, Лилия Гурова, Любовь Малиновская, Толя Дашкевич, Марина Бойцова, Саша Примако, Вова Папкович, Игорь Кондратович, Игорь Гущин, Володя Скурко, Таня Скурко, Света Лапковская, Серёжа Лисичёнок, Владимир Эренберг, Виталий Быков, Валентин Белохвостик, Иван Гаврилюк, Наталья Чемодурова, Юрий Ступаков, Саша Мазалов, Александр Беспалый, Юрий Гончаров
Продолжительность: 03:11:24

Видеокодек: MPEG-2
Битрейт видео: ~2983kb/s
Размер кадра: PAL 4:3 (720x576) VBR
Качество видео: DVD5
Аудиокодек: AC3 2.0
Битрейт аудио: 224kb/s VBR

DVDInfo

Title: Локальный диск
Size: 4.36 Gb ( 4 572 152 KBytes ) - DVD-5
Enabled regions: 1, 2, 3, 4, 5, 6, 7, 8
VTS_01 :
Play Length: 01:04:17+02:07:07
Video: PAL 4:3 (720x576) VBR
Audio:
Russian (Dolby AC3, 2 ch)

MediaInfo

Общее
Полное имя : D:\Фильмы\Bronze Bird\VIDEO_TS\VTS_01_1.VOB
Формат : MPEG-PS
Размер файла : 1024 Мбайт
Продолжительность : 43 м.
Режим общего битрейта : Переменный
Общий поток : 3272 Кбит/сек
Видео
Идентификатор : 224 (0xE0)
Формат : MPEG Video
Версия формата : Version 2
Профиль формата : [email protected]
Параметр BVOP формата : Да
Параметр матрицы формата : Выборочная
Продолжительность : 43 м.
Вид битрейта : Переменный
Битрейт : 2983 Кбит/сек
Максимальный битрейт : 7481 Кбит/сек
Ширина : 720 пикселей
Высота : 576 пикселей
Соотношение сторон : 4:3
Частота кадров : 25,000 кадров/сек
Стандарт вещания : PAL
Цветовое пространство : YUV
Субдискретизация насыщенности : 4:2:0
Битовая глубина : 8 бит
Тип развёртки : Чересстрочная
Порядок развёртки : Нижнее поле первое
Метод сжатия : С потерями
Бит/(Пиксели*Кадры) : 0.288
Размер потока : 934 Мбайт (91%)
Аудио
Идентификатор : 189 (0xBD)-128 (0x80)
Формат : AC-3
Формат/Информация : Audio Coding 3
Расширение режима : CM (complete main)
Режим смешивания : DVD-Video
Продолжительность : 43 м.
Вид битрейта : Постоянный
Битрейт : 224 Кбит/сек
Каналы : 2 канала
Расположение каналов : Front: L R
Частота : 48,0 КГц
Битовая глубина : 16 бит
Метод сжатия : С потерями
Размер потока : 70,1 Мбайт (7%)
Меню

Дополнительных материалов:

-нет
Скриншоты:
       
       

_________________

Создавая "Новую папку", не считайте себя Создателем - это право Вам дано Админом


Other forum [Profile] [PM]

Dracula

Longevity: 7 years 11 months

Posts: 11007

Торрент-статистика

Post 10-Dec-2011 22:58 (after 11 hours)

Топик был перенесен из форума Советское кино в форум Наше кино (DVD)

Delia
 
Display posts from previous:    
Reply to topic

The time now is: Today 21:37

All times are GMT + 3 Hours



You cannot post new topics in this forum
You cannot reply to topics in this forum
You cannot edit your posts in this forum
You cannot delete your posts in this forum
You cannot vote in polls in this forum
You cannot attach files in this forum
You cannot download files in this forum