Today is a free download without charge Download

Невероятная жизнь Уолтера Митти / The Secret Life of Walter Mitty (Бен Стиллер / Ben Stiller, 2013, Приключения, мелодрама, драма, комедия, фэнтези) WEB-DL [H.264/1080p-LQ]

Reply to topic
 
Author
Message

Omen ®

Longevity: 8 years

Posts: 181087

Торрент-статистика

Post 26-Mar-2014 22:37

[Quote]

Невероятная жизнь Уолтера Митти / The Secret Life of Walter Mitty - Год выпуска: 2013
Производство: США / 20th Century Fox Film Corporation, Red House Entertainment, Truenorth Productions
Жанр: Приключения, мелодрама, драма, комедия, фэнтези
Режиссер: Бен Стиллер / Ben Stiller
Продюсер: Стюарт Корнфелд, Сэмюэл Голдуин мл., Джон Голдвин
Актеры: Бен Стиллер, Кристен Уиг, Джон Дэйли, Кэтрин Хан, Теренс Берни Хайнс, Адам Скотт, Пол Фицджералд, Грэйс Рекс, Алекс Анфанджер, Аманда Нафтон
Описание фильма:
Кто сказал, что в сердце маленького человека не могут жить великие мечты? Даже скромному и незаметному служащему хочется иногда совершить пусть безумные, но геройские поступки, поверить в свою силу и мужество. Почему всех спасать должны исключительно супермены?
Перевод: Дублированный (iTunes)
Субтитры: Вшитые отключаемые
Язык субтитров: Английский, Французский, Испанский, Португальский

Дата мировой премьеры: 5 октября 2013
Дата российской премьеры: 1 января 2014, «Двадцатый Век Фокс СНГ»
Дата выхода DVD релиза: 3 апреля 2014, «Двадцатый Век Фокс СНГ»
Дата выхода Blu-Ray релиза: 3 апреля 2014, «Двадцатый Век Фокс СНГ»
Рейтинг MPAA: PG
Возраст: 12+
Продолжительность: 01:54:51
Качество видео: WEB-DL
Видео: MPEG-4 AVC/H.264, 1912x796, ~3975 kbps, 0.109 bit/pixel
Аудио »1: AC3 5.1, 384 kbps, 48.0 KHz (Русский) / Дублированный
Аудио »2: AC3 5.1, 384 kbps, 48.0 KHz (Английский) / Оригинал

MediaInfo:

Код:
Формат                                   : Matroska
Версия формата                           : Version 2
Размер файла                             : 3,88 Гбайт
Продолжительность                        : 1 ч. 54 м.
Общий поток                              : 4840 Кбит/сек
Дата кодирования                         : UTC 2014-03-25 19:46:23
Программа кодирования                    : mkvmerge v6.4.1 ('Omega Point') built on Sep 16 2013 22:05:10
Библиотека кодирования                   : libebml v1.3.0 + libmatroska v1.4.1
Видео
Идентификатор                            : 1
Формат                                   : AVC
Формат/Информация                        : Advanced Video Codec
Профиль формата                          : [url=mailto:[email protected]][email protected][/url]
Параметр CABAC формата                   : Да
Параметр ReFrames формата                : 5 кадров
Идентификатор кодека                     : V_MPEG4/ISO/AVC
Продолжительность                        : 1 ч. 54 м.
Битрейт                                  : 3975 Кбит/сек
Ширина                                   : 1912 пикселей
Высота                                   : 796 пикселей
Соотношение сторон                       : 2,40:1
Режим частоты кадров                     : Постоянный
Частота кадров                           : 23,976 кадра/сек
Цветовое пространство                    : YUV
Субдискретизация насыщенности            : 4:2:0
Битовая глубина                          : 8 бит
Тип развёртки                            : Прогрессивная
Бит/(Пиксели*Кадры)                      : 0.109
Размер потока                            : 3,19 Гбайт (82%)
Язык                                     : English
Default                                  : Да
Forced                                   : Нет
Основные цвета                           : BT.709
Характеристики трансфера                 : BT.709
Коэффициенты матрицы                     : BT.709
Аудио #1
Идентификатор                            : 2
Формат                                   : AC-3
Формат/Информация                        : Audio Coding 3
Расширение режима                        : CM (complete main)
Параметр Endianness формата              : Big
Идентификатор кодека                     : A_AC3
Продолжительность                        : 1 ч. 54 м.
Вид битрейта                             : Постоянный
Битрейт                                  : 384 Кбит/сек
Каналы                                   : 6 каналов
Расположение каналов                     : Front: L C R, Side: L R, LFE
Частота                                  : 48,0 КГц
Битовая глубина                          : 16 бит
Метод сжатия                             : С потерями
Размер потока                            : 315 Мбайт (8%)
Язык                                     : Russian
Default                                  : Да
Forced                                   : Нет
Аудио #2
Идентификатор                            : 3
Формат                                   : AC-3
Формат/Информация                        : Audio Coding 3
Расширение режима                        : CM (complete main)
Параметр Endianness формата              : Big
Идентификатор кодека                     : A_AC3
Продолжительность                        : 1 ч. 54 м.
Вид битрейта                             : Постоянный
Битрейт                                  : 384 Кбит/сек
Каналы                                   : 6 каналов
Расположение каналов                     : Front: L C R, Side: L R, LFE
Частота                                  : 48,0 КГц
Битовая глубина                          : 16 бит
Метод сжатия                             : С потерями
Размер потока                            : 315 Мбайт (8%)
Язык                                     : English
Default                                  : Нет
Forced                                   : Нет
Текст #1
Идентификатор                            : 4
Формат                                   : UTF-8
Идентификатор кодека                     : S_TEXT/UTF8
Идентификатор кодека/Информация          : UTF-8 Plain Text
Язык                                     : English
Default                                  : Нет
Forced                                   : Нет
Текст #2
Идентификатор                            : 5
Формат                                   : UTF-8
Идентификатор кодека                     : S_TEXT/UTF8
Идентификатор кодека/Информация          : UTF-8 Plain Text
Язык                                     : French
Default                                  : Нет
Forced                                   : Нет
Текст #3
Идентификатор                            : 6
Формат                                   : UTF-8
Идентификатор кодека                     : S_TEXT/UTF8
Идентификатор кодека/Информация          : UTF-8 Plain Text
Язык                                     : Spanish
Default                                  : Нет
Forced                                   : Нет
Текст #4
Идентификатор                            : 7
Формат                                   : UTF-8
Идентификатор кодека                     : S_TEXT/UTF8
Идентификатор кодека/Информация          : UTF-8 Plain Text
Язык                                     : Portuguese
Default                                  : Нет
Forced                                   : Нет
Меню
00:00:00.000                             : en:1
00:02:49.000                             : en:2
00:05:38.000                             : en:3
00:08:32.000                             : en:4
00:10:52.000                             : en:5
00:13:50.000                             : en:6
00:17:46.000                             : en:7
00:20:37.000                             : en:8
00:23:30.000                             : en:9
00:26:28.000                             : en:10
00:30:05.000                             : en:11
00:32:16.000                             : en:12
00:34:57.000                             : en:13
00:38:15.000                             : en:14
00:40:28.000                             : en:15
00:44:47.000                             : en:16
00:48:09.000                             : en:17
00:51:25.000                             : en:18
00:54:31.000                             : en:19
00:57:23.000                             : en:20
00:59:57.000                             : en:21
01:03:05.000                             : en:22
01:05:23.000                             : en:23
01:09:21.000                             : en:24
01:11:17.000                             : en:25
01:14:01.000                             : en:26
01:18:25.000                             : en:27
01:22:44.000                             : en:28
01:28:46.000                             : en:29
01:30:17.000                             : en:30
01:33:47.000                             : en:31
01:35:32.000                             : en:32
01:38:17.000                             : en:33
01:39:41.000                             : en:34
01:42:54.000                             : en:35
01:44:20.000                             : en:36
Скриншоты:
       
       
Other forum [Profile] [PM]
Display posts from previous:    
Reply to topic

The time now is: Today 16:14

All times are GMT + 3 Hours



You cannot post new topics in this forum
You cannot reply to topics in this forum
You cannot edit your posts in this forum
You cannot delete your posts in this forum
You cannot vote in polls in this forum
You cannot attach files in this forum
You cannot download files in this forum