Today is a free download without charge Download

Белка и Стрелка: Лунные приключения (Александр Храмцов, Инна Евланникова, Вадим Сотсков)[2013.,Комедия, Приключения, Семейный] WEB-DL [H.264/720p-LQ]

Reply to topic
 
Author
Message

sashau ®

Gender:

Longevity: 8 years 10 months

Posts: 3497

Торрент-статистика

Post 21-Mar-2014 12:20

[Quote]

Белка и Стрелка: Лунные приключения - Год выпуска: 2013
Производство: Россия, КиноАтис
Жанр: Комедия, Приключения, Семейный
Перевод: Не требуется (Русский)
Субтитры: Отсутствуют
Режиссер: Александр Храмцов, Инна Евланникова, Вадим Сотсков
Продюсер: Сергей Зернов, Вадим Сотсков, Юлия Матяш
Актеры: Нонна Гришаева, Марьяна Спивак, Евгений Миронов, Тимур Родригез, Сергей Гармаш, Лев Аксельрод, Илья Храмцов, Стася Кудякова, Алексей Колган, Роман Квашнин
Описание фильма:
На Земле начали происходить странные и загадочные явления, несущие угрозу для планеты. Их след ведет в космос, на темную сторону Луны. Раскрыть тайну века поручили отряду Казбека. Белка, Стрелка и вся команда веселых и отважных героев отправляются на Луну, чтобы выполнить опасную миссию. Страсть к приключениям, искрометный юмор и великий дух космического братства поддержат в минуту великой опасности и помогут раскрыть всю правду о Луне и ее обитателях.

Дата российской премьеры: 6 февраля 2014, «Каропрокат» 3D
Дата выхода DVD релиза: 1 апреля 2014, «CD Land»,
Продолжительность: 01:15:01
Качество видео: WEB-DL [H.264/720p-LQ]
Видеокодек: MPEG-4 AVC/H.264
Битрейт видео: ~3958 kb/s
Размер кадра: 1280x720
Аудиокодек: AC3 5.1
Битрейт аудио: 384 kb/s
Сэмпл: Скачать

MediaInfo:

Общее
Уникальный идентификатор : 177240318135862380005587253703508871853 (0x85573E5CE6AC24C7BFFF60087721CAAD)
Полное имя : E:\Фильмы\Belka.i.Strelka.Lunnye.priklyucheniya.2013.O.WEB-DL.720p.mkv
Формат : Matroska
Версия формата : Version 4 / Version 2
Размер файла : 2,32 Гбайт
Продолжительность : 1 ч. 15 м.
Общий поток : 4430 Кбит/сек
Дата кодирования : UTC 2014-03-20 22:01:49
Программа кодирования : mkvmerge v6.1.0 ('Old Devil') built on Mar 4 2013 09:10:42
Библиотека кодирования : libebml v1.3.0 + libmatroska v1.4.0
Видео
Идентификатор : 1
Формат : AVC
Формат/Информация : Advanced Video Codec
Профиль формата : [url=mailto:[email protected]][email protected][/url]
Параметр CABAC формата : Нет
Параметр ReFrames формата : 2 кадра
Идентификатор кодека : V_MPEG4/ISO/AVC
Продолжительность : 1 ч. 15 м.
Битрейт : 3958 Кбит/сек
Ширина : 1280 пикселей
Высота : 720 пикселей
Соотношение сторон : 16:9
Режим частоты кадров : Постоянный
Частота кадров : 24,000 кадра/сек
Цветовое пространство : YUV
Субдискретизация насыщенности : 4:2:0
Битовая глубина : 8 бит
Тип развёртки : Прогрессивная
Бит/(Пиксели*Кадры) : 0.179
Размер потока : 2,07 Гбайт (89%)
Язык : English
Default : Да
Forced : Нет
Основные цвета : BT.709
Характеристики трансфера : BT.709
Коэффициенты матрицы : BT.709
Аудио
Идентификатор : 2
Формат : AC-3
Формат/Информация : Audio Coding 3
Расширение режима : CM (complete main)
Параметр Endianness формата : Big
Идентификатор кодека : A_AC3
Продолжительность : 1 ч. 15 м.
Вид битрейта : Постоянный
Битрейт : 384 Кбит/сек
Каналы : 6 каналов
Расположение каналов : Front: L C R, Side: L R, LFE
Частота : 48,0 КГц
Битовая глубина : 16 бит
Метод сжатия : С потерями
Размер потока : 206 Мбайт (9%)
Язык : Russian
Default : Да
Forced : Нет
Меню
00:00:00.000 : en:Глава 1
00:05:17.000 : en:Глава 2
00:10:08.000 : en:Глава 3
00:15:18.000 : en:Глава 4
00:20:08.000 : en:Глава 5
00:25:36.000 : en:Глава 6
00:30:09.000 : en:Глава 7
00:35:06.000 : en:Глава 8
00:40:14.000 : en:Глава 9
00:45:30.000 : en:Глава 10
00:50:34.000 : en:Глава 11
00:55:08.000 : en:Глава 12
01:00:11.000 : en:Глава 13
01:05:00.000 : en:Глава 14
Скриншоты:          
         
Other forum [Profile] [PM]
Display posts from previous:    
Reply to topic

The time now is: Today 11:27

All times are GMT + 3 Hours



You cannot post new topics in this forum
You cannot reply to topics in this forum
You cannot edit your posts in this forum
You cannot delete your posts in this forum
You cannot vote in polls in this forum
You cannot attach files in this forum
You cannot download files in this forum