Today is a free download without charge Download

Повелитель Иллюзий - Lord of Illusions (1995) [1080i] HDTV

Reply to topic
 
Author
Message

Omen ®

Longevity: 8 years 5 months

Posts: 181087

Торрент-статистика

Post 08-Dec-2011 20:14

[Quote]

Повелитель Иллюзий
Lord of Illusions
- Русское название: Повелитель Иллюзий
Оригинальное название: Lord of Illusions
Год выпуска: 1995
Жанр: Ужасы, Триллер-Описание фильма:
Заурядное дело, которое расследует частный детектив Гарри, приобретает пугающий оборот, когда он сталкивается с тайной, окружающей всемирно знаменитого мага Филипа Свана и его красавицу жену Доротею. Гарри оказывается втянутым в чудовищный водоворот тайн, обмана и невообразимых ужасов. Иллюзия - трюк, но магия реальна...-Режиссер: Клайв Баркер / Clive Barker
Актеры: Скотт Бакула, Кевин Дж. О’Коннор, Фамке Янссен, Винсент Скьявелли, Шила Таузи, Дэниэл фон Барген, Уэйн Грейс, Джозеф Лэтимор, Барбара Патрик, Джордан Мардер-Продолжительность: 01:44:22
Перевод: Профессиональный (двухголосый закадровый) текст читали Виктория Бабанова, Александр Фечин
Cубтитры: нет
Оригинальная аудиодорожка: английский- -Видеокодек: MPEG-4 AVC/H.264
Битрейт видео: ~8966 Кбит/сек
Размер кадра: 1920 x 1080
Качество видео: HDTV
Аудиокодек: AC3
Битрейт аудио:
Аудио 1: AC-3 at 192 Кбит/сек 2 канала, 48,0 КГц ru - Профессиональный (двухголосый закадровый)
Аудио 2: AC-3 at 384 Кбит/сек 2 канала, 48,0 КГц en - Оригинал-Скриншоты:
       
       -

Рецензия, отзыв о фильме

«Повелитель иллюзий» — это третья лента, в которой сценаристом и режиссером выступает Клайв Баркер. И я считаю, что она ничем не уступает предыдущим двум. В этой картине есть непредсказуемый финал, интересный сюжет. В фильме все построено на магии, иллюзии и мистификации.
Всем поклонникам фильма «Престиж» и творчества Копперфильда советую посмотреть. Также в этом фильме звучит песня perry como — magic moments в необычной аранжировке.
Ну а теперь о недостатках. Самым серьезным я считаю — начало фильма. Оно довольно непонятно и как-то отталкивает. Хотя, это лишь мое мнение.
Таким образом, фильм получился довольно интересным, не избитый сюжет и интересная подача всего делают эту картину довольно любопытной для просмотра, поэтому
8 из 10
-

Награды:

Сатурн, 1996 год
Номинации (1):
Лучший фильм ужасов
-

MediaInfo

Код:
Формат : MPEG-TS
Размер файла : 7,32 Гбайт
Продолжительность : 1 ч. 44 м.
Общий поток : 10,0 Мбит/сек
Максимальный общий битрейт : 35,5 Мбит/сек
Видео
Идентификатор : 4113 (0x1011)
Идентификатор меню : 1 (0x1)
Формат : AVC
Формат/Информация : Advanced Video Codec
Профиль формата : [email protected]
Параметр CABAC формата : Да
Параметр ReFrames формата : 4 кадра
Параметры GOP формата : M=1, N=24
Идентификатор кодека : 27
Продолжительность : 1 ч. 44 м.
Вид битрейта : Переменный
Битрейт : 8966 Кбит/сек
Максимальный битрейт : 40,0 Мбит/сек
Ширина : 1920 пикс.
Высота : 1080 пикс.
Соотношение сторон : 16:9
Частота кадров : 25,000 кадр/сек
Стандарт вещания : PAL
Цветовое пространство : YUV
Подвыборка цветности : 4:2:0
Битовая глубина : 8 бит
Тип развёртки : Чересстрочная
Порядок развёртки : Верхнее поле первое
Бит/(Пиксели*Кадры) : 0.173
Размер потока : 6,54 Гбайт (89%)
Основные цвета : BT.709-5, BT.1361, IEC 61966-2-4, SMPTE RP177
Характеристики трансфера : BT.709-5, BT.1361
Коэффициенты матрицы : BT.709-5, BT.1361, IEC 61966-2-4 709, SMPTE RP177
Аудио #1
Идентификатор : 4352 (0x1100)
Идентификатор меню : 1 (0x1)
Формат : AC-3
Формат/Информация : Audio Coding 3
Расширение режима : CM (complete main)
Идентификатор кодека : 129
Продолжительность : 1 ч. 44 м.
Вид битрейта : Постоянный
Битрейт : 192 Кбит/сек
Каналы : 2 канала
Расположение каналов : Front: L R
Частота : 48,0 КГц
Битовая глубина : 16 бит
Метод сжатия : С потерями
Задержка видео : 179 мс.
Размер потока : 143 Мбайт (2%)
Язык : Russian
Аудио #2
Идентификатор : 4353 (0x1101)
Идентификатор меню : 1 (0x1)
Формат : AC-3
Формат/Информация : Audio Coding 3
Профиль формата : Dolby Digital
Расширение режима : CM (complete main)
Идентификатор кодека : 129
Продолжительность : 1 ч. 44 м.
Вид битрейта : Постоянный
Битрейт : 384 Кбит/сек
Каналы : 2 канала
Расположение каналов : Front: L R
Частота : 48,0 КГц
Битовая глубина : 16 бит
Метод сжатия : С потерями
Задержка видео : 179 мс.
Размер потока : 287 Мбайт (4%)
Язык : English


Last edited by Omen on 2011-12-08 22:54; edited 1 time in total
Other forum [Profile] [PM]
Display posts from previous:    
Reply to topic

The time now is: Today 12:56

All times are GMT + 3 Hours



You cannot post new topics in this forum
You cannot reply to topics in this forum
You cannot edit your posts in this forum
You cannot delete your posts in this forum
You cannot vote in polls in this forum
You cannot attach files in this forum
You cannot download files in this forum