Today is a free download without charge Download

Ковчег / L\'Arche (Роберт Саакянц) [1997, мультфильм, WEBRip]

Reply to topic
 
Author
Message

Omen ®

Longevity: 7 years 11 months

Posts: 181087

Торрент-статистика

Post 09-Mar-2014 08:00

[Quote]

Ковчег / L'Arche
Страна: Армения
Жанр: мультфильм
Продолжительность: 00:04:48
Год выпуска: 1997
Перевод: не требуется
Русские субтитры: нет
Режиссёр: Роберт Саакянц
Композитор: Людвиг ван Бетховен
Описание: Животные разных видов дружно исполняют Оду "К радости". Они нашли спасительный ковчег, им оказывается... Красная Книга.
Качество: WEBRip
Формат: AVI
Видео: 2008 kbps, 640х480 (4:3), 25.000 fps, MPEG-4 Visual (XviD)
Аудио: 192 kbps, 44.1 kHz, 2 channels, MPEG Audio (MP3)
Субтитры: отсутствуют

Подробные технические данные

GeneralComplete name : Ковчег (1997).aviFormat : AVIFormat/Info : Audio Video InterleaveFile size : 76.1 MiBDuration : 4mn 48sOverall bit rate : 2 212 KbpsWriting application : Lavf55.19.104Writing library : VirtualDub build 32842/release
VideoID : 0Format : MPEG-4 VisualFormat profile : Advanced [email protected] settings, BVOP : 2Format settings, QPel : NoFormat settings, GMC : No warppointsFormat settings, Matrix : Default (H.263)Muxing mode : Packed bitstreamCodec ID : XVIDCodec ID/Hint : XviDDuration : 4mn 48sBit rate : 2 008 KbpsWidth : 640 pixelsHeight : 480 pixelsDisplay aspect ratio : 4:3Frame rate : 25.000 fpsColor space : YUVChroma subsampling : 4:2:0Bit depth : 8 bitsScan type : ProgressiveCompression mode : LossyBits/(Pixel*Frame) : 0.261Stream size : 69.0 MiB (91%)Writing library : XviD 1.2.1 (UTC 2008-12-04)
AudioID : 1Format : MPEG AudioFormat version : Version 1Format profile : Layer 3Mode : Joint stereoMode extension : MS StereoCodec ID : 55Codec ID/Hint : MP3Duration : 4mn 48sBit rate mode : ConstantBit rate : 192 KbpsChannel(s) : 2 channelsSampling rate : 44.1 KHzCompression mode : LossyStream size : 6.60 MiB (9%)Alignment : Aligned on interleavesInterleave, duration : 26 ms (0.65 video frame)Interleave, preload duration : 522 msWriting library : LAME3.99.5

Скриншоты

Ода "К радости" / "An die Freude"

Автор - Фридрих Шиллер. Русский перевод - И. Миримский
Радость, пламя неземное,
Райский дух, слетевший к нам,
Опьянённые тобою,
Мы вошли в твой светлый храм.
Ты сближаешь без усилья
Всех разрозненных враждой,
Там, где ты раскинешь крылья,
Люди — братья меж собой.
Обнимитесь, миллионы!
Слейтесь в радости одной!
Там, над звёздною страной, -
Бог, в любви пресуществлённый!
Кто сберёг в житейской вьюге
Дружбу друга своего,
Верен был своей подруге, -
Влейся в наше торжество!
Кто презрел в земной юдоли
Теплоту душевных уз,
Тот в слезах, по доброй воле,
Пусть покинет наш союз!
Всё, что в мире обитает,
Вечной дружбе присягай!
Путь её в надзвёздный край,
Где Неведомый витает.
Мать-природа всё живое
Соком радости поит,
Всем даёт своей рукою
Долю счастья без обид.
Нам лозу и взор любимой,
Друга верного в бою,
Видеть Бога херувиму,
Сладострастие червю.
Ниц простерлись вы в смиренье?
Мир! Ты видишь Божество?
Выше звёзд ищи Его;
В небесах Его селенья.
Радость двигает колёса
Вечных мировых часов.
Свет рождает из хаоса,
Плод рождает из цветов.
С мировым круговоротом
Состязаясь в быстроте,
Видит солнца в звездочётам
Недоступной высоте.
Как светила по орбите,
Как герой на смертный бой,
Братья, в путь идите свой,
Смело, с радостью идите!
С ней мудрец читает сферы,
Пишет правды письмена,
На крутых высотах веры
Страстотерпца ждёт она.
Там парят её знамёна
Средь сияющих светил,
Здесь стоит она склонённой
У разверзшихся могил.
Выше огненных созвездий,
Братья, есть блаженный мир,
Претерпи, кто слаб и сир, -
Там награда и возмездье!
Не нужны богам рыданья!
Будем равны им в одном:
К общей чаше ликованья
Всех скорбящих созовём.
Прочь и распри и угрозы!
Не считай врагу обид!
Пусть его не душат слёзы
И печаль не тяготит.
В пламя, книга долговая!
Мир и радость — путь из тьмы.
Братья, как судили мы,
Судит Бог в надзвёздном крае.
Радость льётся по бокалам,
Золотая кровь лозы,
Дарит кротость каннибалам,
Робким силу в час грозы.
Братья, встаньте, — пусть, играя,
Брызжет пена выше звёзд!
Выше, чаша круговая!
Духу света этот тост!
Вознесём Ему хваленья
С хором ангелов и звёзд.
Духу света этот тост!
Ввысь, в надзвездные селенья!
Стойкость в муке нестерпимой,
Помощь тем, кто угнетён,
Сила клятвы нерушимой -
Вот священный наш закон!
Гордость пред лицом тирана
(Пусть то жизни стоит нам),
Смерть служителям обмана,
Слава праведным делам!
Братья, в тесный круг сомкнитесь
И над чашею с вином
Слово соблюдать во всём
Звёздным Судиёй клянитесь!
Other forum [Profile] [PM]
Display posts from previous:    
Reply to topic

The time now is: Today 11:30

All times are GMT + 3 Hours



You cannot post new topics in this forum
You cannot reply to topics in this forum
You cannot edit your posts in this forum
You cannot delete your posts in this forum
You cannot vote in polls in this forum
You cannot attach files in this forum
You cannot download files in this forum