Today is a free download without charge Download

Кошачий концерт (Владимир Кадухин) [1986, мультфильм, TVRip]

Reply to topic
 
Author
Message

Omen ®

Longevity: 7 years 11 months

Posts: 181087

Торрент-статистика

Post 08-Mar-2014 05:33

[Quote]

Кошачий концерт
Страна: СССР
Жанр: мультфильм
Продолжительность: 00:03:48
Год выпуска: 1986
Перевод: Не требуется
Русские субтитры: нет
Режиссёр: Владимир Кадухин
Описание: Четыре кота на крыше многоэтажки собираются спеть хором, но жильцы дома своим бытовым шумом портят весь концерт.
Качество: TVRip
Формат: AVI
Видео: 2176 kbps, 576х432 (4:3), 25.000 fps, MPEG-4 Visual (XviD)
Аудио: 96 kbps, 44.1 kHz, 1 channel, MPEG Audio (MP3)
Субтитры: отсутствуют

Подробные технические данные

GeneralComplete name : Кошачий концерт (1986).aviFormat : AVIFormat/Info : Audio Video InterleaveFile size : 62.0 MiBDuration : 3mn 48sOverall bit rate : 2 282 KbpsMovie name : Koshachij koncertDirector : TO EkranRecorded date : 1986Writing application : VirtualDubMod 1.5.10.2 (build 2542/release)Writing library : VirtualDub build 32842/releaseComment : Lame MP3 44,1 kHz Mono @ 96 kbps
VideoID : 0Format : MPEG-4 VisualFormat profile : Advanced [email protected] settings, BVOP : 2Format settings, QPel : NoFormat settings, GMC : No warppointsFormat settings, Matrix : Default (H.263)Muxing mode : Packed bitstreamCodec ID : XVIDCodec ID/Hint : XviDDuration : 3mn 48sBit rate : 2 176 KbpsWidth : 576 pixelsHeight : 432 pixelsDisplay aspect ratio : 4:3Frame rate : 25.000 fpsColor space : YUVChroma subsampling : 4:2:0Bit depth : 8 bitsScan type : ProgressiveCompression mode : LossyBits/(Pixel*Frame) : 0.350Stream size : 59.2 MiB (95%)Writing library : XviD 1.2.1 (UTC 2008-12-04)
AudioID : 1Format : MPEG AudioFormat version : Version 1Format profile : Layer 3Codec ID : 55Codec ID/Hint : MP3Duration : 3mn 47sBit rate mode : ConstantBit rate : 96.0 KbpsChannel(s) : 1 channelSampling rate : 44.1 KHzCompression mode : LossyStream size : 2.61 MiB (4%)Alignment : Split accross interleavesInterleave, duration : 40 ms (1.00 video frame)Interleave, preload duration : 500 ms

Скриншоты

Other forum [Profile] [PM]
Display posts from previous:    
Reply to topic

The time now is: Today 03:29

All times are GMT + 3 Hours



You cannot post new topics in this forum
You cannot reply to topics in this forum
You cannot edit your posts in this forum
You cannot delete your posts in this forum
You cannot vote in polls in this forum
You cannot attach files in this forum
You cannot download files in this forum