Today is a free download without charge Download

Кожа, в которой я живу / La piel que habito (Педро Альмодовар / Pedro Almodovar) [2011, Испания, триллер, драма, DVD9] R5 Dub Sub Rus + Original Spa [«Парадиз Видео»]

Reply to topic
 
Author
Message

voovaz ®

Gender:

Longevity: 9 years 5 months

Posts: 87

Торрент-статистика

Post 05-Dec-2011 02:39

[Quote]

-Кожа, в которой я живу / La piel que habito -Страна: Испания
Студия: Canal+ España, El Deseo S.A., Instituto de Crédito Oficial (ICO), Televisión Española (TVE)
Жанр: триллер, драма
Год выпуска: 2011
Мировая премьера: 19 мая 2011
Российская премьера: 22 сентября 2011, «Парадиз»
Дата выхода DVD: 13 декабря 2011, «Парадиз Видео»
Дата выхода Blu-Ray: 13 декабря 2011, «Парадиз Видео»
Продолжительность: 01:55:21
Перевод: Профессиональный (дублированный) [Лицензия]
Cубтитры: русские
Оригинальная аудиодорожка: испанский-Режиссер: Педро Альмодовар / Pedro Almodovar-В ролях: Антонио Бандерас, Елена Анайя, Мариса Паредес, Жан Корнет, Роберто Аламо, Эдуард Фернандес, Хосе Луис Гомес, Бланка Суарес, Сьюзи Санчез, Барбара Ленни...-Описание: Гений пластической хирургии д-р Ледгард, путем дерзких генетических экспериментов создавший искусственную человеческую кожу, ведет охоту на подонка, который много лет назад изнасиловал его дочь. Жестокость его мести не знает предела…-Бонусы: Смотрите на DVD, фильм о фильме- -Релиз группы: -Качество: DVD9 R5
Формат: DVD-Video
Видео кодек: MPEG2
Аудио кодек: AC3
Видео: PAL 16:9 (720x576(0.628)) MPEG Video, 25,000 кадр/сек, 6515 Кбит/сек
Аудио #1: Russian (Dolby AC3, 6 ch) 384 Кбит/сек, 48,0 КГц
Аудио #2: Russian (Dolby AC3, 2 ch) 192 Кбит/сек, 48,0 КГц
Аудио #3: Espanol (Dolby AC3, 6 ch) 384 Кбит/сек, 48,0 КГц-
-

DVDInfo

Title:
Size: 7.33 Gb ( 7 681 016,00 KBytes ) - DVD-9
Enabled regions: 1, 2, 3, 4, 5, 6, 7, 8
VTS_01 :
Play Length: 00:00:01+01:55:21+00:00:01
Video: PAL 16:9 (720x576) VBR, Auto Letterboxed
Audio:
Russian (Dolby AC3, 6 ch)
Russian (Dolby AC3, 2 ch)
Espanol (Dolby AC3, 6 ch)
Subtitles:
Russian
VTS_02 :
Play Length: 00:00:01+00:00:11+00:00:01
Video: PAL 16:9 (720x576) VBR, Auto Letterboxed
Audio:
Russian (Dolby AC3, 2 ch)
VTS_03 :
Play Length: 00:00:01+00:00:17+00:00:01
Video: PAL 16:9 (720x576) VBR, Auto Letterboxed
Audio:
Russian (Dolby AC3, 2 ch)
VTS_04 :
Play Length: 00:00:01+00:11:34+00:00:01
Video: PAL 16:9 (720x576) VBR, Auto Letterboxed
Audio:
Russian (Dolby AC3, 2 ch)
VTS_05 :
Play Length: 00:00:01+00:12:17+00:00:01
Video: PAL 16:9 (720x576) VBR, Auto Letterboxed
Audio:
Not specified (Dolby AC3, 2 ch)

MediaInfo

Общее
Полное имя : G:\Новинки 2011\Kozha,.v.kotoroj.ja.zhivu.2011.DVD9\VIDEO_TS\VTS_01_6.VOB
Формат : MPEG-PS
Размер файла : 1024 Мбайт
Продолжительность : 18 м.
Общий поток : 7627 Кбит/сек
Видео
Идентификатор : 224 (0xE0)
Формат : MPEG Video
Версия формата : Version 2
Профиль формата : [email protected]
Параметр BVOP формата : Да
Параметр матрицы формата : Выборочная
Параметр GOP формата : M=3, N=12
Продолжительность : 18 м.
Вид битрейта : Переменный
Битрейт : 6515 Кбит/сек
Максимальный битрейт : 8500 Кбит/сек
Ширина : 720 пикселей
Высота : 576 пикселей
Соотношение сторон : 16:9
Частота кадров : 25,000 кадров/сек
Стандарт вещания : PAL
Цветовое пространство : YUV
Субдискретизация насыщенности : 4:2:0
Битовая глубина : 8 бит
Тип развёртки : Чересстрочная
Порядок развёртки : Верхнее поле первое
Метод сжатия : С потерями
Бит/(Пиксели*Кадры) : 0.628
Размер потока : 875 Мбайт (85%)
Аудио #1
Идентификатор : 189 (0xBD)-128 (0x80)
Формат : AC-3
Формат/Информация : Audio Coding 3
Расширение режима : CM (complete main)
Режим смешивания : DVD-Video
Продолжительность : 18 м.
Вид битрейта : Постоянный
Битрейт : 384 Кбит/сек
Каналы : 6 каналов
Расположение каналов : Front: L C R, Side: L R, LFE
Частота : 48,0 КГц
Битовая глубина : 16 бит
Метод сжатия : С потерями
Задержка видео : -192 мс.
Размер потока : 51,5 Мбайт (5%)
Аудио #2
Идентификатор : 189 (0xBD)-129 (0x81)
Формат : AC-3
Формат/Информация : Audio Coding 3
Расширение режима : CM (complete main)
Режим смешивания : DVD-Video
Продолжительность : 18 м.
Вид битрейта : Постоянный
Битрейт : 192 Кбит/сек
Каналы : 2 канала
Расположение каналов : Front: L R
Частота : 48,0 КГц
Битовая глубина : 16 бит
Метод сжатия : С потерями
Задержка видео : -192 мс.
Размер потока : 25,8 Мбайт (3%)
Аудио #3
Идентификатор : 189 (0xBD)-130 (0x82)
Формат : AC-3
Формат/Информация : Audio Coding 3
Расширение режима : CM (complete main)
Режим смешивания : DVD-Video
Продолжительность : 18 м.
Вид битрейта : Постоянный
Битрейт : 384 Кбит/сек
Каналы : 6 каналов
Расположение каналов : Front: L C R, Side: L R, LFE
Частота : 48,0 КГц
Битовая глубина : 16 бит
Метод сжатия : С потерями
Задержка видео : -192 мс.
Размер потока : 51,5 Мбайт (5%)

Скриншоты меню

       

Скриншоты фильма

               

Скриншоты доп. материалов

           
-
-
-
-
Other forum [Profile] [PM]
Display posts from previous:    
Reply to topic

The time now is: Today 11:33

All times are GMT + 3 Hours



You cannot post new topics in this forum
You cannot reply to topics in this forum
You cannot edit your posts in this forum
You cannot delete your posts in this forum
You cannot vote in polls in this forum
You cannot attach files in this forum
You cannot download files in this forum