Today is a free download without charge Download

Обиженные игрушки ( Владимир Муджири)[1949.,Детский] DVDRip

Reply to topic
 
Author
Message

sashau ®

Gender:

Longevity: 8 years 10 months

Posts: 3497

Торрент-статистика

Post 25-Feb-2014 11:15

[Quote]

Обиженные игрушки - Год выпуска: 1949
Жанр: Детский
Режиссер: Владимир МуджириОписание фильма:
Мультипликационный фильм о медвежатах, которые не умели бережно играть со своими игрушками и постоянно ломали их. Однажды бабушка-медведица пошла в магазин игрушек и купила любимым внучатам очередные подарки. Но медвежата разломали новые игрушки в первый же день. Пришлось бабушке нести сломанные игрушки в мастерскую. Когда медвежата уснули, им приснился сон, будто бы они попадают в мастерскую игрушек, где сломанные игрушки оживают и начинают стыдить неуклюжих медвежат.
Продолжительность: 00:10:05
Качество видео: DVDRip
Видеокодек: Xvid
Битрейт видео: ~1797 kb/s
Размер кадра: 704x528
Аудиокодек: AC3, 2 ch
Битрейт аудио: 256 kb/s

MediaInfo

Видео
Идентификатор : 0
Формат : MPEG-4 Visual
Профиль формата : Advanced [email protected]
Параметр BVOP формата : 2
Параметр QPel формата : Нет
Параметр GMC формата : Без точки перехода
Параметр матрицы формата : Default (H.263)
Режим смешивания : Сжатый битовый поток
Идентификатор кодека : XVID
Идентификатор кодека/Подсказка : XviD
Продолжительность : 10 м.
Битрейт : 1797 Кбит/сек
Ширина : 704 пикс.
Высота : 528 пикс.
Соотношение сторон : 4:3
Частота кадров : 25,000 кадр/сек
Цветовое пространство : YUV
Подвыборка цветности : 4:2:0
Битовая глубина : 8 бит
Тип развёртки : Прогрессивная
Метод сжатия : С потерями
Бит/(Пиксели*Кадры) : 0.193
Размер потока : 130 Мбайт (87%)
Библиотека кодирования : XviD 1.2.1 (UTC 2008-12-04)
Аудио
Идентификатор : 1
Формат : AC-3
Формат/Информация : Audio Coding 3
Расширение режима : CM (complete main)
Идентификатор кодека : 2000
Продолжительность : 10 м.
Вид битрейта : Постоянный
Битрейт : 256 Кбит/сек
Канал(ы) : 2 канала(ов)
Расположение каналов : Front: L R
Частота : 48,0 КГц
Битовая глубина : 16 бит
Метод сжатия : С потерями
Задержка видео : 4 мс.
Размер потока : 18,5 Мбайт (12%)
Выравнивание : Разделение по промежуткам
Продолжительность промежутка : 63 мс. (1,58 видеокадров)
Скриншоты:
       
   
Other forum [Profile] [PM]
Display posts from previous:    
Reply to topic

The time now is: Today 02:53

All times are GMT + 3 Hours



You cannot post new topics in this forum
You cannot reply to topics in this forum
You cannot edit your posts in this forum
You cannot delete your posts in this forum
You cannot vote in polls in this forum
You cannot attach files in this forum
You cannot download files in this forum