Today is a free download without charge Download

Побеждай! / Win Win (Томас МакКарти / Thomas McCarthy) [2011, США, драма, комедия, DVD9] R5 MVO Sub Rus + Original Eng [«Двадцатый Век Фокс СНГ»]

Reply to topic
 
Author
Message

voovaz ®

Gender:

Longevity: 9 years 5 months

Posts: 87

Торрент-статистика

Post 03-Dec-2011 14:30

[Quote]

-Побеждай! / Win Win-«In the game of life, you can't lose 'em all.» -Страна: США
Студия: Everest Entertainment, Fox Searchlight Pictures, Groundswell Productions, Next Wednes
Жанр: драма, комедия
Год выпуска: 2011
Мировая премьера: 21 января 2011
Дата выхода DVD: 10 ноября 2011, «Двадцатый Век Фокс СНГ»
Продолжительность: 01:41:40
Перевод: Профессиональный (многоголосый закадровый) [Лицензия]
Cубтитры: русские, датские, английские, эстонские, финский, латышские, литовские, норвежские, испанские, словенские, украинские
Оригинальная аудиодорожка: английский-Режиссер: Томас МакКарти / Thomas McCarthy-В ролях: Пол Джаматти, Эми Райан, Бобби Каннавале, Джефри Тэмбор, Берт Янг, Мелани Лински, Алекс Шеффер, Марго Мартиндейл, Дэвид Томпсон, Mike Diliello...-Описание: Неуверенный в себе адвокат Майк Флаэрти, пытаясь прокормить семью, подрабатывает тренером по борьбе в средней школе, и связывается с бывшим звездным спортсменом, который участвует в некоторых сомнительных деловых операциях. Майк берет на себя опеку над пожилыми клиентами в отчаянной попытке сохранить свою адвокатскую практику на плаву. Когда один из подростков, внук клиента, убегает из дома и появляется на пороге дома его деда, жизнь Майка переворачивается с ног на голову, а его взаимовыгодное положение превращается в нечто гораздо более сложное, чем он когда-либо ожидал.-Бонусы: Удаленные сцены, Том МакКарти и Джо Тибони обсуждают фильм "Win Win", Дэвид Томпсон на кинофестивале Сандэнс, беседа с Том МакКарти и Полом Джиаматти на кинофестивале Сандэнс, Семья, музыкальный видеоклип, ролик
- -Релиз группы: -Качество: DVD9 R5
Формат: DVD-Video
Видео кодек: MPEG2
Аудио кодек: AC3
Видео: PAL 16:9 (720x576(0.538)) MPEG Video, 25,000 кадр/сек, 5580 Кбит/сек
Аудио #1: English (Dolby AC3, 6 ch) 448 Кбит/сек, 48,0 КГц
Аудио #2: English (Dolby AC3, 6 ch) 384 Кбит/сек, 48,0 КГц
Аудио #3: Espanol (Dolby AC3, 6 ch) 384 Кбит/сек, 48,0 КГц
Аудио #4: Russian (Dolby AC3, 6 ch) 384 Кбит/сек, 48,0 КГц-
-

DVDInfo

Title: Рабочий
Size: 6.32 Gb ( 6 621 926 KBytes ) - DVD-9
Enabled regions: 1, 2, 3, 4, 5, 6, 7, 8
VTS_01 :
Play Length: 01:41:40
Video: PAL 16:9 (720x576) VBR, Auto Letterboxed
Audio:
English (Dolby AC3, 6 ch)
English (Dolby AC3, 6 ch)
Espanol (Dolby AC3, 6 ch)
Russian (Dolby AC3, 6 ch)
Subtitles:
Dansk
English
Estonian
Suomi
Latvian
Lithuanian
Norsk
Russian
Espanol
Svenska
Ukrainian
Espanol
Russian
VTS_02 :
Play Length: 00:00:23
Video: PAL 16:9 (720x576) VBR, Auto Letterboxed
Audio:
English (Dolby AC3, 6 ch)
English (Dolby AC3, 6 ch)
VTS_03 :
Play Length: 00:00:12+00:00:39+00:01:02
Video: PAL 16:9 (720x576) VBR, Auto Letterboxed
Audio:
English (Dolby AC3, 2 ch)
Espanol (Dolby AC3, 2 ch)
Subtitles:
Dansk
English
Estonian
Suomi
Latvian
Lithuanian
Norsk
Russian
Espanol
Svenska
Ukrainian
Espanol
Russian
VTS_04 :
Play Length: 00:01:55
Video: PAL 16:9 (720x576) VBR, Auto Letterboxed
Audio:
English (Dolby AC3, 6 ch)
VTS_05 :
Play Length: 00:06:15+00:02:29+00:02:27+00:02:25+00:04:36+00:01:51+00:01:09+00:00:31
Video: PAL 16:9 (720x576) VBR, Auto Letterboxed
Audio:
English (Dolby AC3, 6 ch)
English (Dolby AC3, 6 ch)
Espanol (Dolby AC3, 6 ch)
Russian (Dolby AC3, 6 ch)
English (Dolby AC3, 2 ch)
Subtitles:
Dansk
English
Estonian
Suomi
Latvian
Lithuanian
Norsk
Russian
Espanol
Svenska
Ukrainian
Espanol
Russian
VTS_06 :
Play Length: 00:02:21
Video: PAL 16:9 (720x576) VBR, Auto Letterboxed
Audio:
English (Dolby AC3, 6 ch)
Subtitles:
Dansk
English
Estonian
Suomi
Latvian
Lithuanian
Norsk
Russian
Espanol
Svenska
Ukrainian
Espanol
Russian
VTS_07 :
Play Length: 00:04:59
Video: PAL 16:9 (720x576) VBR, Auto Letterboxed
Audio:
English (Dolby AC3, 2 ch)

MediaInfo

Общее
Полное имя : G:\Новинки 2011\Pobejdai.2011.DVD9\VIDEO_TS\VTS_01_1.VOB
Формат : MPEG-PS
Размер файла : 1024 Мбайт
Продолжительность : 19 м.
Общий поток : 7326 Кбит/сек
Видео
Идентификатор : 224 (0xE0)
Формат : MPEG Video
Версия формата : Version 2
Профиль формата : [email protected]
Параметр BVOP формата : Да
Параметр матрицы формата : Выборочная
Параметр GOP формата : M=2, N=12
Продолжительность : 19 м.
Вид битрейта : Переменный
Битрейт : 5580 Кбит/сек
Максимальный битрейт : 7500 Кбит/сек
Ширина : 720 пикселей
Высота : 576 пикселей
Соотношение сторон : 16:9
Частота кадров : 25,000 кадров/сек
Стандарт вещания : PAL
Цветовое пространство : YUV
Субдискретизация насыщенности : 4:2:0
Битовая глубина : 8 бит
Тип развёртки : Чересстрочная
Порядок развёртки : Верхнее поле первое
Метод сжатия : С потерями
Бит/(Пиксели*Кадры) : 0.538
Размер потока : 780 Мбайт (76%)
Аудио #1
Идентификатор : 189 (0xBD)-128 (0x80)
Формат : AC-3
Формат/Информация : Audio Coding 3
Расширение режима : CM (complete main)
Режим смешивания : DVD-Video
Продолжительность : 19 м.
Вид битрейта : Постоянный
Битрейт : 448 Кбит/сек
Каналы : 6 каналов
Расположение каналов : Front: L C R, Side: L R, LFE
Частота : 48,0 КГц
Битовая глубина : 16 бит
Метод сжатия : С потерями
Размер потока : 62,6 Мбайт (6%)
Аудио #2
Идентификатор : 189 (0xBD)-129 (0x81)
Формат : AC-3
Формат/Информация : Audio Coding 3
Расширение режима : CM (complete main)
Режим смешивания : DVD-Video
Продолжительность : 19 м.
Вид битрейта : Постоянный
Битрейт : 384 Кбит/сек
Каналы : 6 каналов
Расположение каналов : Front: L C R, Side: L R, LFE
Частота : 48,0 КГц
Битовая глубина : 16 бит
Метод сжатия : С потерями
Размер потока : 53,7 Мбайт (5%)
Аудио #3
Идентификатор : 189 (0xBD)-130 (0x82)
Формат : AC-3
Формат/Информация : Audio Coding 3
Расширение режима : CM (complete main)
Режим смешивания : DVD-Video
Продолжительность : 19 м.
Вид битрейта : Постоянный
Битрейт : 384 Кбит/сек
Каналы : 6 каналов
Расположение каналов : Front: L C R, Side: L R, LFE
Частота : 48,0 КГц
Битовая глубина : 16 бит
Метод сжатия : С потерями
Размер потока : 53,7 Мбайт (5%)
Аудио #4
Идентификатор : 189 (0xBD)-131 (0x83)
Формат : AC-3
Формат/Информация : Audio Coding 3
Расширение режима : CM (complete main)
Режим смешивания : DVD-Video
Продолжительность : 19 м.
Вид битрейта : Постоянный
Битрейт : 384 Кбит/сек
Каналы : 6 каналов
Расположение каналов : Front: L C R, Side: L R, LFE
Частота : 48,0 КГц
Битовая глубина : 16 бит
Метод сжатия : С потерями
Размер потока : 53,7 Мбайт (5%)
Текст #1
Идентификатор : 189 (0xBD)-32 (0x20)
Формат : RLE
Формат/Информация : Run-length encoding
Режим смешивания : DVD-Video
Текст #2
Идентификатор : 189 (0xBD)-33 (0x21)
Формат : RLE
Формат/Информация : Run-length encoding
Режим смешивания : DVD-Video
Текст #3
Идентификатор : 189 (0xBD)-34 (0x22)
Формат : RLE
Формат/Информация : Run-length encoding
Режим смешивания : DVD-Video
Текст #4
Идентификатор : 189 (0xBD)-35 (0x23)
Формат : RLE
Формат/Информация : Run-length encoding
Режим смешивания : DVD-Video
Текст #5
Идентификатор : 189 (0xBD)-36 (0x24)
Формат : RLE
Формат/Информация : Run-length encoding
Режим смешивания : DVD-Video
Текст #6
Идентификатор : 189 (0xBD)-37 (0x25)
Формат : RLE
Формат/Информация : Run-length encoding
Режим смешивания : DVD-Video
Текст #7
Идентификатор : 189 (0xBD)-38 (0x26)
Формат : RLE
Формат/Информация : Run-length encoding
Режим смешивания : DVD-Video
Текст #8
Идентификатор : 189 (0xBD)-39 (0x27)
Формат : RLE
Формат/Информация : Run-length encoding
Режим смешивания : DVD-Video
Текст #9
Идентификатор : 189 (0xBD)-40 (0x28)
Формат : RLE
Формат/Информация : Run-length encoding
Режим смешивания : DVD-Video
Текст #10
Идентификатор : 189 (0xBD)-41 (0x29)
Формат : RLE
Формат/Информация : Run-length encoding
Режим смешивания : DVD-Video
Текст #11
Идентификатор : 189 (0xBD)-42 (0x2A)
Формат : RLE
Формат/Информация : Run-length encoding
Режим смешивания : DVD-Video

Скриншоты меню

               

Скриншоты фильма

               

Скриншоты доп. материалов

           
-
-
-
-
Other forum [Profile] [PM]
Display posts from previous:    
Reply to topic

The time now is: Today 03:46

All times are GMT + 3 Hours



You cannot post new topics in this forum
You cannot reply to topics in this forum
You cannot edit your posts in this forum
You cannot delete your posts in this forum
You cannot vote in polls in this forum
You cannot attach files in this forum
You cannot download files in this forum