Today is a free download without charge Download

Диагноз любовь / Coming & Going (Эдоардо Понти / Edoardo Ponti) [2011, США, комедия, DVD9] R5 MVO [«Мистерия Звука»]

Reply to topic
 
Author
Message

voovaz ®

Gender:

Longevity: 9 years 5 months

Posts: 87

Торрент-статистика

Post 03-Dec-2011 13:32

[Quote]

-Диагноз любовь / Coming & Going-«Lying is Easy, Love is Hard» -Страна: США
Студия: Bennett-Robbins Productions, Films 1420m, PicturePlay Films
Жанр: комедия
Год выпуска: 2011
Мировая премьера: 15 июля 2011
Дата выхода DVD: 24 ноября 2011, «Мистерия Звука»
Продолжительность: 01:29:00
Перевод: Профессиональный (многоголосый закадровый) [Лицензия]
Cубтитры: нет-Режиссер: Эдоардо Понти / Edoardo Ponti-В ролях: Риз Дэрби, Саша Александр, Фионнула Флэнаган, Пэм Кук, Майкл Корначчиа, Брайан Хукс, Ивана Миличевич, Карла Галло, Мэтер Зикел, Омар Авила...-Описание: Ли — молодой квалифицированный гинеколог. В своем кабинете он всесилен, но для того, чтобы заговорить с женщиной вне клиники, ему не хватает уверенности. Его мама хочет найти ему хорошую девушку, из-за чего он постоянно попадает в неудобные ситуации.
Нелепая случайность временно приковывает его к инвалидной коляске, и как раз в этом время он встречает девушку своей мечты. Убежденный в том, что она обратила на него внимание только из-за кресла, он остается в нем даже после того, как вылечивается от травмы. Но сможет ли эта маленькая ложь помочь ему?
-Бонусы: нет- -Релиз группы: -Качество: DVD9 R5
Формат: DVD-Video
Видео кодек: MPEG2
Аудио кодек: AC3
Видео: PAL 16:9 (720x576(0.725)) MPEG Video, 25,000 кадр/сек, 7512 Кбит/сек
Аудио: Russian (Dolby AC3, 6 ch) 448 Кбит/сек, 48,0 КГц-
-

DVDInfo

Title: Рабочий
Size: 5.03 Gb ( 5 274 988 KBytes ) - DVD-9
Enabled regions: 1, 2, 3, 4, 5, 6, 7, 8
VTS_01 :
Play Length: 00:00:16
Video: PAL 16:9 (720x576) VBR, Auto Letterboxed
Audio:
Russian (Dolby AC3, 2 ch)
VTS_02 :
Play Length: 01:29:00
Video: PAL 16:9 (720x576) VBR, Auto Letterboxed
Audio:
Russian (Dolby AC3, 6 ch)

MediaInfo

Общее
Полное имя : G:\Новинки 2011\Diagnoz lubov.2011.DVD9\VIDEO_TS\VTS_02_2.VOB
Формат : MPEG-PS
Размер файла : 1023 Мбайт
Продолжительность : 17 м.
Общий поток : 8122 Кбит/сек
Видео
Идентификатор : 224 (0xE0)
Формат : MPEG Video
Версия формата : Version 2
Профиль формата : [email protected]
Параметр BVOP формата : Да
Параметр матрицы формата : Выборочная
Параметр GOP формата : M=3, N=15
Продолжительность : 17 м.
Вид битрейта : Переменный
Битрейт : 7512 Кбит/сек
Максимальный битрейт : 8500 Кбит/сек
Ширина : 720 пикселей
Высота : 576 пикселей
Соотношение сторон : 16:9
Частота кадров : 25,000 кадров/сек
Стандарт вещания : PAL
Цветовое пространство : YUV
Субдискретизация насыщенности : 4:2:0
Битовая глубина : 8 бит
Тип развёртки : Прогрессивная
Метод сжатия : С потерями
Бит/(Пиксели*Кадры) : 0.725
Размер потока : 947 Мбайт (92%)
Аудио
Идентификатор : 189 (0xBD)-128 (0x80)
Формат : AC-3
Формат/Информация : Audio Coding 3
Расширение режима : CM (complete main)
Режим смешивания : DVD-Video
Продолжительность : 17 м.
Вид битрейта : Постоянный
Битрейт : 448 Кбит/сек
Каналы : 6 каналов
Расположение каналов : Front: L C R, Side: L R, LFE
Частота : 48,0 КГц
Битовая глубина : 16 бит
Метод сжатия : С потерями
Задержка видео : -264 мс.
Размер потока : 56,5 Мбайт (6%)

Скриншоты меню

   

Скриншоты фильма

               
-
-
-
-
Other forum [Profile] [PM]
Display posts from previous:    
Reply to topic

The time now is: Today 19:29

All times are GMT + 3 Hours



You cannot post new topics in this forum
You cannot reply to topics in this forum
You cannot edit your posts in this forum
You cannot delete your posts in this forum
You cannot vote in polls in this forum
You cannot attach files in this forum
You cannot download files in this forum