Today is a free download without charge Download

Подари мне немного тепла (Илья Максимов)(Драма2013) HDTVRip [1080i]

Reply to topic
 
Author
Message

KirovSOFT ®

Gender:

Longevity: 9 years 5 months

Posts: 998

Location: Кировская область -Оричи

Торрент-статистика

Post 23-Feb-2014 21:59

[Quote]

Подари мне немного тепла [1080i]- Год выпуска: 2013
Производство: Россия, Мотор фильм студия
Жанр: Драма
Перевод: Не требуется (Русский)
Субтитры: Отсутствуют
Описание фильма:
Молодая работница хлебозавода мечтает родить ребенка, но боится повторить поступок своей матери, бросившей детей ради чужого мужчины. Встреча с любимым человеком дает ей возможность забыть о своем страхе и обрести надежду на счастье. Но гибель любимого разрушает ее планы. Кто и как вернет ей надежду?
Режиссер: Илья Максимов
Продюсер: Александр Кушаев, Дмитрий Фикс, Сергей Фикс
Актеры: Светлана Иванова, Сергей Мухин, Илья Шакунов, Алена Спивак, Олеся Остапенко, Алина Бабак
Продолжительность: 01:28:17
Качество видео: HDTV

Дата российской премьеры: 29 сентября 2013
Видеокодек: MPEG-4 AVC/H.264
Битрейт видео: ~7828 kbps avg, 0.151 bit/pixel
Размер кадра: 1920x1080, 25.000 fps / 16:9 / High Profile 4.1
Аудиокодек: MPEG Audio, 2 channels
Битрейт аудио: 192.00 kbps avg, 48 kHz
Сэмпл: Ссылка

MediaInfo

Код:
General
ID : 1 (0x1)
Complete name : Подари мне немного тепла (2013, Мелодрама, HDTV 1080i).ts
Format : MPEG-TS
File size : 5.20 GiB
Duration : 1h 28mn
Overall bit rate mode : Variable
Overall bit rate : 8 439 Kbps
Video
ID : 2911 (0xB5F)
Menu ID : 1 (0x1)
Format : AVC
Format/Info : Advanced Video Codec
Format profile : [url=mailto:[email protected]][email protected][/url]
Format settings, CABAC : Yes
Format settings, ReFrames : 3 frames
Codec ID : 27
Duration : 1h 28mn
Bit rate : 7 828 Kbps
Width : 1 920 pixels
Height : 1 080 pixels
Display aspect ratio : 16:9
Frame rate : 25.000 fps
Color space : YUV
Chroma subsampling : 4:2:0
Bit depth : 8 bits
Scan type : MBAFF
Bits/(Pixel*Frame) : 0.151
Stream size : 4.83 GiB (93%)
Audio
ID : 2912 (0xB60)
Menu ID : 1 (0x1)
Format : MPEG Audio
Format version : Version 1
Format profile : Layer 2
Mode : Joint stereo
Mode extension : Intensity Stereo + MS Stereo
Codec ID : 3
Duration : 1h 28mn
Bit rate mode : Constant
Bit rate : 192 Kbps
Channel count : 2 channels
Sampling rate : 48.0 KHz
Compression mode : Lossy
Stream size : 121 MiB (2%)
Language : Russian
Скриншоты:
                   

_________________
Other forum [Profile] [PM]
Display posts from previous:    
Reply to topic

The time now is: Today 18:33

All times are GMT + 3 Hours



You cannot post new topics in this forum
You cannot reply to topics in this forum
You cannot edit your posts in this forum
You cannot delete your posts in this forum
You cannot vote in polls in this forum
You cannot attach files in this forum
You cannot download files in this forum