Today is a free download without charge Download

Букет (Лев Атаманов) [1966 г., мультфильм, DVB]

Reply to topic
 
Author
Message

Omen ®

Longevity: 7 years 11 months

Posts: 181087

Торрент-статистика

Post 23-Feb-2014 14:00

[Quote]

Букет
Жанр: мультфильм
Год выпуска: 1966
Продолжительность: 00:16:30
Режиссёр: Лев Атаманов
Описание: мультфильм о том, как муж решает изменить жене и покупает букет, который хочет подарить другой женщине. Но та на свидание не приходит ...
Доп. информация: огромная благодарность за предоставленный исходник

Трансляция спутникового канала:

Качество видео: DVB
Формат видео: MPEG-PS
Видео: MPEG2 Video, [email protected] (4:3), анаморф, 25 fps, 3400 kbps
Аудио: MPEG Audio, 2 сh, 48 kHz, 192 kbps

MediaInfo

D:\Букет. (1966)_DVB by RG multfilms.mpg
General
Complete name : D:\Букет. (1966)_DVB by RG multfilms.mpg
Format : MPEG-PS
File size : 437 MiB
Duration : 16mn 30s
Overall bit rate mode : Variable
Overall bit rate : 3 706 Kbps
Video #224
ID : 224 (0xE0)
Format : MPEG Video
Format version : Version 2
Format profile : [email protected]
Format settings, BVOP : Yes
Format settings, Matrix : Custom
Duration : 16mn 30s
Bit rate mode : Variable
Bit rate : 3 440 Kbps
Maximum bit rate : 15.0 Mbps
Width : 544 pixels
Height : 576 pixels
Display aspect ratio : 4:3
Frame rate : 25.000 fps
Color space : YUV
Chroma subsampling : 4:2:0
Bit depth : 8 bits
Scan type : Interlaced
Scan order : Top Field First
Compression mode : Lossy
Bits/(Pixel*Frame) : 0.439
Stream size : 406 MiB (93%)
Audio #192
ID : 192 (0xC0)
Format : MPEG Audio
Format version : Version 1
Format profile : Layer 2
Duration : 16mn 30s
Bit rate mode : Constant
Bit rate : 192 Kbps
Channel(s) : 2 channels
Sampling rate : 48.0 KHz
Compression mode : Lossy
Stream size : 22.7 MiB (5%)

Скриншоты


Other forum [Profile] [PM]
Display posts from previous:    
Reply to topic

The time now is: Today 11:03

All times are GMT + 3 Hours



You cannot post new topics in this forum
You cannot reply to topics in this forum
You cannot edit your posts in this forum
You cannot delete your posts in this forum
You cannot vote in polls in this forum
You cannot attach files in this forum
You cannot download files in this forum