Today is a free download without charge Download

Кумба / Khumba (Энтони Силверстон / Anthony Silverston)(Мультфильм, Приключения, Семейный2013) BDRip

Reply to topic
 
Author
Message

KirovSOFT ®

Gender:

Longevity: 8 years 8 months

Posts: 998

Location: Кировская область -Оричи

Торрент-статистика

Post 22-Feb-2014 15:50

[Quote]

Кумба / Khumba
«Half a zebra, a whole lot of adventure!»
-
Год выпуска: 2013
Производство: ЮАР / Triggerfish Animation
Жанр: Мультфильм, приключения, семейный
Перевод: Дублированный
Субтитры: Вшитые отключаемые
Язык субтитров: Английский
Режиссер: Энтони Силверстон / Anthony Silverston
Продюсер: Майк Баклэнд, Стюарт Форрест, Жан-Мишель Кениг
Актеры: Джейк Т. Остин, Лиам Нисон, Стив Бушеми, Анна-София Робб, Лоренс Фишбёрн, Грег Эллис, Ричард Э. Грант, Кэтрин Тейт, Чарльз Адлер, Ди Брэдли Бейкер
Описание фильма:
Зебра Кумба с самого рождения был посмешищем всего стада из-за того, что родился наполовину полосатым, а наполовину белым. Хуже того, когда началась Великая Засуха, сородичи решили, что он проклят, и в нем причина всех бед. Стадо изгнало Кумбу, и даже отец отвернулся от него! Отважная полуполосатая зебра отправляется в опасные и веселые приключения, чтобы найти недостающие полоски и заслужить уважение семьи…

Дата мировой премьеры: 8 сентября 2013
Дата российской премьеры: 3 апреля 2014, «Люксор»
Рейтинг MPAA: Рейтинг PG
Возраст: 0+
Продолжительность: 01:25:18
Качество видео: BDRip (batonchik)
Контейнер: MKV
Видео: 1920x796p / 23,976 fps / 16:9 / High Profile 4.1, H.264, ~ 7000 kbps
Аудио:
1. Dolby Digital Audio Russian 448 kbps 5.1 / 48 kHz (DUB)
2. Dolby Digital Audio English 640 kbps 5.1 / 48 kHz / (Оригинал)

h.264 log:

--[Information] [18.02.2014 13:59:47] Standard error stream
---[Information] [18.02.2014 13:59:53] raw [info]: 1920x796p 1:1 @ 24000/1001 fps (cfr)
---[Information] [18.02.2014 13:59:53] x264 [info]: using SAR=1/1
---[Information] [18.02.2014 13:59:53] x264 [info]: using cpu capabilities: MMX2 SSE2Fast SSSE3 SSE4.2 AVX
---[Information] [18.02.2014 13:59:53] x264 [info]: profile High, level 4.1
---[Information] [18.02.2014 17:40:50] x264 [info]: frame I:1324 Avg QP:11.15 size:356411
---[Information] [18.02.2014 17:40:50] x264 [info]: frame P:34588 Avg QP:14.22 size: 70538
---[Information] [18.02.2014 17:40:50] x264 [info]: frame B:86799 Avg QP:17.65 size: 17980
---[Information] [18.02.2014 17:40:50] x264 [info]: consecutive B-frames: 4.2% 8.5% 10.7% 50.3% 12.7% 10.2% 1.8% 1.0% 0.6%
---[Information] [18.02.2014 17:40:50] x264 [info]: mb I I16..4: 15.5% 61.4% 23.2%
---[Information] [18.02.2014 17:40:50] x264 [info]: mb P I16..4: 1.9% 14.3% 1.8% P16..4: 31.8% 13.3% 16.4% 1.1% 0.8% skip:18.8%
---[Information] [18.02.2014 17:40:50] x264 [info]: mb B I16..4: 0.4% 2.3% 0.2% B16..8: 29.8% 7.4% 2.0% direct: 4.8% skip:53.0% L0:39.0% L1:44.0% BI:17.0%
---[Information] [18.02.2014 17:40:50] x264 [info]: 8x8 transform intra:76.8% inter:47.1%
---[Information] [18.02.2014 17:40:50] x264 [info]: direct mvs spatial:94.8% temporal:5.2%
---[Information] [18.02.2014 17:40:50] x264 [info]: coded y,uvDC,uvAC intra: 79.6% 80.2% 59.2% inter: 17.0% 15.0% 5.5%
---[Information] [18.02.2014 17:40:50] x264 [info]: i16 v,h,dc,p: 31% 20% 18% 31%
---[Information] [18.02.2014 17:40:50] x264 [info]: i8 v,h,dc,ddl,ddr,vr,hd,vl,hu: 12% 15% 19% 7% 9% 9% 9% 9% 12%
---[Information] [18.02.2014 17:40:50] x264 [info]: i4 v,h,dc,ddl,ddr,vr,hd,vl,hu: 12% 11% 10% 8% 13% 12% 12% 10% 11%
---[Information] [18.02.2014 17:40:50] x264 [info]: i8c dc,h,v,p: 48% 25% 16% 11%
---[Information] [18.02.2014 17:40:50] x264 [info]: Weighted P-Frames: Y:2.5% UV:1.8%
---[Information] [18.02.2014 17:40:50] x264 [info]: ref P L0: 59.0% 7.2% 22.9% 9.4% 1.4% 0.0%
---[Information] [18.02.2014 17:40:50] x264 [info]: ref B L0: 85.3% 11.7% 3.0%
---[Information] [18.02.2014 17:40:50] x264 [info]: ref B L1: 93.4% 6.6%
---[Information] [18.02.2014 17:40:50] x264 [info]: kb/s:6990.57
---[Information] [18.02.2014 17:40:50] encoded 122711 frames, 9.26 fps, 6990.57 kb/s
--[Information] [18.02.2014 17:40:50] Final statistics
---[Information] [18.02.2014 17:40:50] Video Bitrate Desired: 7000 kbit/s
---[Information] [18.02.2014 17:40:50] Video Bitrate Obtained (approximate): 6992 kbit/s

MediaInfo:

Общее
Уникальный идентификатор : 221802105339061656275561740043555063029 (0xA6DD8819902C30E1825B021E07A244F5)
Полное имя : \Кумба-Khumba.2013.BDRip.1080p.mkv
Формат : Matroska
Версия формата : Version 2
Размер файла : 4,81 Гбайт
Продолжительность : 1 ч. 25 м.
Общий поток : 8081 Кбит/сек
Название фильма : Кумба-Khumba.2013.BDRip.1080p
Дата кодирования : UTC 2014-02-18 15:31:25
Программа кодирования : mkvmerge v5.8.0 ('No Sleep / Pillow') built on Sep 2 2012 15:37:04
Библиотека кодирования : libebml v1.2.3 + libmatroska v1.3.0
Видео
Идентификатор : 1
Формат : AVC
Формат/Информация : Advanced Video Codec
Профиль формата : [email protected]
Параметр CABAC формата : Да
Параметр ReFrames формата : 4 кадра
Идентификатор кодека : V_MPEG4/ISO/AVC
Продолжительность : 1 ч. 25 м.
Битрейт : 7000 Кбит/сек
Ширина : 1920 пикселей
Высота : 796 пикселей
Соотношение сторон : 2,40:1
Режим частоты кадров : Постоянный
Частота кадров : 23,976 кадра/сек
Цветовое пространство : YUV
Субдискретизация насыщенности : 4:2:0
Битовая глубина : 8 бит
Тип развёртки : Прогрессивная
Бит/(Пиксели*Кадры) : 0.191
Размер потока : 4,07 Гбайт (85%)
Заголовок : Кумба-Khumba.2013.BDRip.1080p
Библиотека кодирования : x264 core 138 r2358 9e941d1
Настройки программы : cabac=1 / ref=4 / deblock=1:-3:-3 / analyse=0x3:0x133 / me=umh / subme=10 / psy=1 / psy_rd=1.00:0.15 / mixed_ref=1 / me_range=32 / chroma_me=1 / trellis=2 / 8x8dct=1 / cqm=0 / deadzone=21,11 / fast_pskip=0 / chroma_qp_offset=-3 / threads=12 / lookahead_threads=2 / sliced_threads=0 / nr=0 / decimate=1 / interlaced=0 / bluray_compat=0 / constrained_intra=0 / bframes=8 / b_pyramid=2 / b_adapt=2 / b_bias=0 / direct=3 / weightb=1 / open_gop=0 / weightp=2 / keyint=240 / keyint_min=22 / scenecut=40 / intra_refresh=0 / rc_lookahead=40 / rc=2pass / mbtree=1 / bitrate=7000 / ratetol=1.0 / qcomp=0.60 / qpmin=0 / qpmax=69 / qpstep=4 / cplxblur=20.0 / qblur=0.5 / vbv_maxrate=50000 / vbv_bufsize=62500 / nal_hrd=none / ip_ratio=1.40 / aq=1:0.90
Язык : English
Default : Да
Forced : Нет
Аудио #1
Идентификатор : 2
Формат : AC-3
Формат/Информация : Audio Coding 3
Расширение режима : CM (complete main)
Параметр Endianness формата : Big
Идентификатор кодека : A_AC3
Продолжительность : 1 ч. 25 м.
Вид битрейта : Постоянный
Битрейт : 448 Кбит/сек
Каналы : 6 каналов
Расположение каналов : Front: L C R, Side: L R, LFE
Частота : 48,0 КГц
Битовая глубина : 16 бит
Метод сжатия : С потерями
Размер потока : 273 Мбайт (6%)
Заголовок : Дубляж
Язык : Russian
Default : Да
Forced : Нет
Аудио #2
Идентификатор : 3
Формат : AC-3
Формат/Информация : Audio Coding 3
Расширение режима : CM (complete main)
Параметр Endianness формата : Big
Идентификатор кодека : A_AC3
Продолжительность : 1 ч. 25 м.
Вид битрейта : Постоянный
Битрейт : 640 Кбит/сек
Каналы : 6 каналов
Расположение каналов : Front: L C R, Side: L R, LFE
Частота : 48,0 КГц
Битовая глубина : 16 бит
Метод сжатия : С потерями
Размер потока : 390 Мбайт (8%)
Заголовок : Оригинал
Язык : English
Default : Нет
Forced : Нет
Текст
Идентификатор : 4
Формат : UTF-8
Идентификатор кодека : S_TEXT/UTF8
Идентификатор кодека/Информация : UTF-8 Plain Text
Язык : English
Default : Нет
Forced : Нет
Меню
00:00:00.000 : :Chapter 01
00:07:02.880 : :Chapter 02
00:14:33.622 : :Chapter 03
00:24:04.484 : :Chapter 04
00:30:51.933 : :Chapter 05
00:38:02.488 : :Chapter 06
00:45:18.507 : :Chapter 07
00:50:56.344 : :Chapter 08
00:55:26.865 : :Chapter 09
01:00:10.857 : :Chapter 10
01:09:02.304 : :Chapter 11
01:19:12.789 : :Chapter 12
       

_________________
Other forum [Profile] [PM]
Display posts from previous:    
Reply to topic

The time now is: Today 11:53

All times are GMT + 3 Hours



You cannot post new topics in this forum
You cannot reply to topics in this forum
You cannot edit your posts in this forum
You cannot delete your posts in this forum
You cannot vote in polls in this forum
You cannot attach files in this forum
You cannot download files in this forum