Today is a free download without charge Download

Ванька Жуков (Леонид Зарубин) [1981 г., мультфильм, DVB]

Reply to topic
 
Author
Message

Omen ®

Longevity: 7 years 11 months

Posts: 181087

Торрент-статистика

Post 22-Feb-2014 08:00

[Quote]

Ванька Жуков
Жанр: мультфильм
Год выпуска: 1981
Продолжительность: 00:09:54
Режиссёр: Леонид Зарубин
Описание: мультфильм о том, как 9-летний мальчик Ванька Жуков в письме к дедушке жалуется на свою тяжелую жизнь …
(по рассказу Антона Чехова)
Доп. информация: огромная благодарность за предоставленный исходник

Релиз группы:
Трансляция спутникового канала:

Качество видео: DVB
Формат видео: MPEG-PS
Видео: MPEG2 Video, [email protected] (4:3), анаморф, 25 fps, 3700 kbps
Аудио: MPEG Audio, 2 сh, 48 kHz, 192 Kbps

MediaInfo

D:\Ванька Жуков. (1981)_DVB by RG multfilms.mpg
General
Complete name : D:\Ванька Жуков. (1981)_DVB by RG multfilms.mpg
Format : MPEG-PS
File size : 279 MiB
Duration : 9mn 54s
Overall bit rate mode : Variable
Overall bit rate : 3 938 Kbps
Video #224
ID : 224 (0xE0)
Format : MPEG Video
Format version : Version 2
Format profile : [email protected]
Format settings, BVOP : No
Format settings, Matrix : Custom
Format settings, GOP : M=1, N=10
Duration : 9mn 54s
Bit rate mode : Variable
Bit rate : 3 667 Kbps
Maximum bit rate : 15.0 Mbps
Width : 720 pixels
Height : 576 pixels
Display aspect ratio : 4:3
Frame rate : 25.000 fps
Standard : PAL
Color space : YUV
Chroma subsampling : 4:2:0
Bit depth : 8 bits
Scan type : Interlaced
Scan order : Top Field First
Compression mode : Lossy
Bits/(Pixel*Frame) : 0.354
Stream size : 260 MiB (93%)
Audio #192
ID : 192 (0xC0)
Format : MPEG Audio
Format version : Version 1
Format profile : Layer 2
Duration : 9mn 54s
Bit rate mode : Constant
Bit rate : 192 Kbps
Channel(s) : 2 channels
Sampling rate : 48.0 KHz
Compression mode : Lossy
Stream size : 13.6 MiB (5%)

Скриншоты


Other forum [Profile] [PM]
Display posts from previous:    
Reply to topic

The time now is: Today 02:01

All times are GMT + 3 Hours



You cannot post new topics in this forum
You cannot reply to topics in this forum
You cannot edit your posts in this forum
You cannot delete your posts in this forum
You cannot vote in polls in this forum
You cannot attach files in this forum
You cannot download files in this forum