Today is a free download without charge Download

Ваня Датский (Николай Серебряков) [1974 г., мультфильм, DVB]

Reply to topic
 
Author
Message

Omen ®

Longevity: 7 years 11 months

Posts: 181087

Торрент-статистика

Post 22-Feb-2014 08:00

[Quote]

Ваня Датский
Жанр: мультфильм
Год выпуска: 1974
Продолжительность: 00:15:23
Режиссёр: Николай Серебряков
Описание: мультфильм о поморском мальчике, который уплыл за море и до зрелых лет прожил в чужих краях в довольстве и счастии, но все же вернулся на родную землю, к матери, что ждала его долгие годы.
(по мотивам архангельской были Б. Шергина)
Доп. информация: огромная благодарность за предоставленный исходник
Релиз группы:
Трансляция спутникового канала:

Качество видео: DVB
Формат видео: MPEG-PS
Видео: MPEG2 Video, [email protected] (4:3), анаморф, 25 fps, 9000 kbps
Аудио: MPEG Audio, 2 сh, 48 kHz, 384 Kbps

MediaInfo

D:\Ваня Датский. (1974)_DVB by RG multfilms.mpg
General
Complete name : D:\Ваня Датский. (1974)_DVB by RG multfilms.mpg
Format : MPEG-PS
File size : 1.03 GiB
Duration : 15mn 23s
Overall bit rate : 9 561 Kbps
Video #224
ID : 224 (0xE0)
Format : MPEG Video
Format version : Version 2
Format profile : [email protected]
Format settings, BVOP : Yes
Format settings, Matrix : Custom
Format settings, GOP : M=3, N=12
Duration : 15mn 22s
Bit rate : 9 000 Kbps
Width : 720 pixels
Height : 576 pixels
Display aspect ratio : 4:3
Frame rate : 25.000 fps
Standard : PAL
Color space : YUV
Chroma subsampling : 4:2:0
Bit depth : 8 bits
Scan type : Interlaced
Scan order : Top Field First
Compression mode : Lossy
Bits/(Pixel*Frame) : 0.868
Stream size : 989 MiB (94%)
Audio #192
ID : 192 (0xC0)
Format : MPEG Audio
Format version : Version 1
Format profile : Layer 2
Duration : 15mn 23s
Bit rate mode : Constant
Bit rate : 384 Kbps
Channel(s) : 2 channels
Sampling rate : 48.0 KHz
Compression mode : Lossy
Delay relative to video : -56ms
Stream size : 42.3 MiB (4%)
Menu

Скриншоты


Other forum [Profile] [PM]
Display posts from previous:    
Reply to topic

The time now is: Today 15:14

All times are GMT + 3 Hours



You cannot post new topics in this forum
You cannot reply to topics in this forum
You cannot edit your posts in this forum
You cannot delete your posts in this forum
You cannot vote in polls in this forum
You cannot attach files in this forum
You cannot download files in this forum