Today is a free download without charge Download

Джин-помощник (Ж. Даненов, Г. Кистауов) [1982, Казахфильм, рисованная анимация, TeleSynch]

Reply to topic
 
Author
Message

Omen ®

Longevity: 7 years 11 months

Posts: 181087

Торрент-статистика

Post 21-Feb-2014 14:09

[Quote]

Джин-помощник
Страна: СССР
Жанр: рисованная анимация
Продолжительность: 00:08:24
Год выпуска: 1982
Режиссёр: Ж. Даненов, Г. Кистауов
Описание: В фильме рассказывается о мальчике, который хотел делать добрые дела с помощью Джина. Однако никакие волшебники не помогут человеку больше, чем он сам. Он и должен творить добрые дела.
Доп. информация: Фильм оцифрован с киноплёнки 35-мм из личной коллекции
Качество: TeleSynch
Формат: MP4
Видео: mpg; 4:3; 720х576; 25 fps; 4944 kbps
Аудио: АС-3; 48 кHz; 2 ch (моно); 256 kbps

Подробные технические данные

ОбщееПолное имя : Джин-помощник.mpgФормат : MPEG-PSРазмер файла : 297 МбайтПродолжительность : 8 м. 24 с.Режим общего битрейта : ПеременныйОбщий поток : 4944 Кбит/сек
ВидеоИдентификатор : 224 (0xE0)Формат : MPEG VideoВерсия формата : Version 2Профиль формата : [email protected]Параметр BVOP формата : ДаПараметр матрицы формата : По умолчаниюПродолжительность : 8 м. 24 с.Вид битрейта : ПеременныйБитрейт : 4590 Кбит/секШирина : 720 пикселейВысота : 576 пикселейСоотношение сторон : 5:4Частота кадров : 25,000 кадров/секСтандарт вещания : PALЦветовое пространство : YUVСубдискретизация насыщенности : 4:2:0Битовая глубина : 8 битТип развёртки : ПрогрессивнаяМетод сжатия : С потерямиБит/(Пиксели*Кадры) : 0.443Временной код первого кадра : 00:00:00:00Оригинал временного кода : Group of pictures headerРазмер потока : 276 Мбайт (93%)
АудиоИдентификатор : 192 (0xC0)Формат : MPEG AudioВерсия формата : Version 1Профиль формата : Layer 2Продолжительность : 8 м. 24 с.Вид битрейта : ПостоянныйБитрейт : 256 Кбит/секКаналы : 2 каналаЧастота : 48,0 КГцМетод сжатия : С потерямиРазмер потока : 15,4 Мбайт (5%)

Скриншоты

, , , ,
Other forum [Profile] [PM]
Display posts from previous:    
Reply to topic

The time now is: Today 07:35

All times are GMT + 3 Hours



You cannot post new topics in this forum
You cannot reply to topics in this forum
You cannot edit your posts in this forum
You cannot delete your posts in this forum
You cannot vote in polls in this forum
You cannot attach files in this forum
You cannot download files in this forum