Today is a free download without charge Download

Алиса в Стране чудес. Алиса в Зазеркалье (Ефрем Пружанский) [1981-1982 г., Мультфильм, сказка, DVDRip-AVC] КП, Реставрация

Reply to topic
 
Author
Message

Omen ®

Longevity: 7 years 11 months

Posts: 181087

Торрент-статистика

Post 14-Feb-2014 17:00

[Quote]

Алиса в Стране чудес. Алиса в Зазеркалье-Страна: СССР
Жанр: Мультфильм, сказка
Продолжительность: 1:08:52
Год выпуска: 1981-1982
Русские субтитры: нет
Режиссёр: Ефрем Пружанский
Описание:
Алиса в Стране чудес
Девочка Алиса через кроличью нору попадает в Страну чудес, где с ней происходят волшебные превращения и где она знакомится со странными существами: Чеширским Котом, Мартовским Зайцем и другими
Алиса в Зазеркалье
Алиса проходит сквозь зеркало, знакомится с шахматными фигурами и участвует в шахматной партии в качестве белой королевской пешки
Качество: DVDRip-AVC
Формат: MKV
Видео: 720x576 (4:3) @ 768x576, 25.000 fps, AVC, ~VBR Kbps
Аудио: Russian, 48.0 KHz, AC3, 6 ch, 448 Kbps
Субтитры: отсутствуют

Тех. данные

1

File: 1. Алиса в Стране чудес-1.mkv
File size: 200.29 MBytes (210 021 571 Bytes)
Duration: 00:10:00.000
Overall bitrate: 2800 Kbps
Title: Alisa1.mkv by Nyc-2008
Encoded application: mkvmerge v6.7.0 ('Back to the Ground') 32bit built on Jan 8 2014 15:03:17
Encoded library: libebml v1.3.0 + libmatroska v1.4.1
Video: 720x576 (4:3) @ 768x576, 25.000 fps, AVC, ~2297 Kbps, 0.222 bits/pixel
Audio: Russian, 48.0 KHz, AC3, 6 ch, 448 Kbps

2

File: 2. Алиса в Стране чудес-2.mkv
File size: 201.33 MBytes (211 110 364 Bytes)
Duration: 00:10:07.560
Overall bitrate: 2780 Kbps
Title: Alisa2.mkv by Nyc-2008
Encoded application: mkvmerge v6.7.0 ('Back to the Ground') 32bit built on Jan 8 2014 15:03:17
Encoded library: libebml v1.3.0 + libmatroska v1.4.1
Video: 720x576 (4:3) @ 768x576, 25.000 fps, AVC, ~2276 Kbps, 0.220 bits/pixel
Audio: Russian, 48.0 KHz, AC3, 6 ch, 448 Kbps

3

File: 3. Алиса в Стране чудес-3.mkv
File size: 205.61 MBytes (215 597 646 Bytes)
Duration: 00:10:08.400
Overall bitrate: 2835 Kbps
Title: Alisa3.mkv by Nyc-2008
Encoded application: mkvmerge v6.7.0 ('Back to the Ground') 32bit built on Jan 8 2014 15:03:17
Encoded library: libebml v1.3.0 + libmatroska v1.4.1
Video: 720x576 (4:3) @ 768x576, 25.000 fps, AVC, ~2331 Kbps, 0.225 bits/pixel
Audio: Russian, 48.0 KHz, AC3, 6 ch, 448 Kbps

4

File: 4. Алиса в Зазеркалье-1.mkv
File size: 176.59 MBytes (185 172 586 Bytes)
Duration: 00:09:36.840
Overall bitrate: 2568 Kbps
Title: Alisa4.mkv by Nyc-2008
Encoded application: mkvmerge v6.7.0 ('Back to the Ground') 32bit built on Jan 8 2014 15:03:17
Encoded library: libebml v1.3.0 + libmatroska v1.4.1
Video: 720x576 (4:3) @ 768x576, 25.000 fps, AVC, ~2069 Kbps, 0.200 bits/pixel
Audio: Russian, 48.0 KHz, AC3, 6 ch, 448 Kbps

5

File: 5. Алиса в Зазеркалье-2.mkv
File size: 177.95 MBytes (186 598 326 Bytes)
Duration: 00:08:50.440
Overall bitrate: 2814 Kbps
Title: Alisa5.mkv by Nyc-2008
Encoded application: mkvmerge v6.7.0 ('Back to the Ground') 32bit built on Jan 8 2014 15:03:17
Encoded library: libebml v1.3.0 + libmatroska v1.4.1
Video: 720x576 (4:3) @ 768x576, 25.000 fps, AVC, ~2310 Kbps, 0.223 bits/pixel
Audio: Russian, 48.0 KHz, AC3, 6 ch, 448 Kbps

6

File: 6. Алиса в Зазеркалье-3.mkv
File size: 199.34 MBytes (209 021 061 Bytes)
Duration: 00:10:07.045
Overall bitrate: 2755 Kbps
Title: Alisa6.mkv by Nyc-2008
Encoded application: mkvmerge v6.7.0 ('Back to the Ground') 32bit built on Jan 8 2014 15:03:17
Encoded library: libebml v1.3.0 + libmatroska v1.4.1
Video: 720x576 (4:3) @ 768x576, 25.000 fps, AVC, ~2252 Kbps, 0.217 bits/pixel
Audio: Russian, 48.0 KHz, AC3, 6 ch, 448 Kbps

7

File: 7. Алиса в Зазеркалье-4.mkv
File size: 190.70 MBytes (199 966 939 Bytes)
Duration: 00:10:06.725
Overall bitrate: 2637 Kbps
Title: Alisa7.mkv by Nyc-2008
Encoded application: mkvmerge v6.7.0 ('Back to the Ground') 32bit built on Jan 8 2014 15:03:17
Encoded library: libebml v1.3.0 + libmatroska v1.4.1
Video: 720x576 (4:3) @ 768x576, 25.000 fps, AVC, ~2136 Kbps, 0.206 bits/pixel
Audio: Russian, 48.0 KHz, AC3, 6 ch, 448 Kbps

Подробные технические данные

MediaInfo - 1 серия

General
Unique ID : 202519450668646730807803202024035241833 (0x985BD3D2DE89DF77BEBC0AC9E3FACF69)
Complete name : D:\Tor_MY\Алиса\1. Алиса в Стране чудес-1.mkv
Format : Matroska
Format version : Version 4 / Version 2
File size : 200 MiB
Duration : 10mn 0s
Overall bit rate : 2 800 Kbps
Movie name : Alisa1.mkv by Nyc-2008
Encoded date : UTC 2014-02-14 10:54:23
Writing application : mkvmerge v6.7.0 ('Back to the Ground') 32bit built on Jan 8 2014 15:03:17
Writing library : libebml v1.3.0 + libmatroska v1.4.1
Video
ID : 1
Format : AVC
Format/Info : Advanced Video Codec
Format profile : [email protected]
Format settings, CABAC : Yes
Format settings, ReFrames : 16 frames
Codec ID : V_MPEG4/ISO/AVC
Duration : 10mn 0s
Bit rate : 2 297 Kbps
Width : 720 pixels
Height : 576 pixels
Display aspect ratio : 4:3
Frame rate mode : Constant
Frame rate : 25.000 fps
Standard : PAL
Color space : YUV
Chroma subsampling : 4:2:0
Bit depth : 8 bits
Scan type : Progressive
Bits/(Pixel*Frame) : 0.222
Stream size : 164 MiB (82%)
Writing library : x264 core 142 r2389kMod 956c8d8
Encoding settings : cabac=1 / ref=16 / deblock=1:-2:-1 / analyse=0x3:0x113 / me=umh / subme=10 / psy=1 / fade_compensate=0.00 / psy_rd=1.00:0.00 / mixed_ref=1 / me_range=24 / chroma_me=1 / trellis=2 / 8x8dct=1 / cqm=0 / deadzone=21,11 / fast_pskip=0 / chroma_qp_offset=-2 / threads=6 / lookahead_threads=1 / sliced_threads=0 / nr=0 / decimate=1 / interlaced=0 / bluray_compat=0 / constrained_intra=0 / fgo=0 / bframes=16 / b_pyramid=2 / b_adapt=2 / b_bias=0 / direct=1 / weightb=1 / open_gop=0 / weightp=2 / keyint=250 / keyint_min=25 / scenecut=40 / intra_refresh=0 / rc=crf / mbtree=0 / crf=18.0000 / qcomp=0.60 / qpmin=0 / qpmax=69 / qpstep=4 / ip_ratio=1.40 / pb_ratio=1.30 / aq=1:1.00
Default : Yes
Forced : No
Color primaries : BT.601 PAL
Transfer characteristics : BT.470 System B, BT.470 System G
Matrix coefficients : BT.601
Audio
ID : 2
Format : AC-3
Format/Info : Audio Coding 3
Mode extension : CM (complete main)
Format settings, Endianness : Big
Codec ID : A_AC3
Duration : 10mn 0s
Bit rate mode : Constant
Bit rate : 448 Kbps
Channel(s) : 6 channels
Channel positions : Front: L C R, Side: L R, LFE
Sampling rate : 48.0 KHz
Bit depth : 16 bits
Compression mode : Lossy
Stream size : 32.0 MiB (16%)
Language : Russian
Default : Yes
Forced : No

x264 log - 1 серия

x264 [info]: 720x576p 16:15 @ 25/1 fps (cfr)
x264 [info]: using SAR=16/15
x264 [info]: using cpu capabilities: MMX2 SSE2Fast SSSE3 SSE4.2 AVX
x264 [info]: profile High, level 4.0
x264 [info]: cabac=1 ref=16 deblock=1:-2:-1 analyse=0x3:0x113 me=umh subme=10 psy=1 fade_compensate=0.00 psy_rd=1.00:0.00 mixed_ref=1 me_range=24 chroma_me=1 trellis=2 8x8dct=1 cqm=0 deadzone=21,11 fast_pskip=0 chroma_qp_offset=-2 threads=6 lookahead_threads=1 sliced_threads=0 nr=0 decimate=1 interlaced=0 bluray_compat=0 constrained_intra=0 fgo=0 bframes=16 b_pyramid=2 b_adapt=2 b_bias=0 direct=1 weightb=1 open_gop=0 weightp=2 keyint=250 keyint_min=25 scenecut=40 intra_refresh=0 rc=crf mbtree=0 crf=18.0000 qcomp=0.60 qpmin=0 qpmax=69 qpstep=4 ip_ratio=1.40 pb_ratio=1.30 aq=1:1.00
x264 [info]: frame I:93 Avg QP:19.15 size: 53991
x264 [info]: frame P:3640 Avg QP:21.14 size: 22626
x264 [info]: frame B:11265 Avg QP:24.27 size: 7892
x264 [info]: consecutive B-frames: 2.6% 2.7% 12.7% 32.2% 18.4% 23.8% 4.5% 1.4% 0.7% 0.1% 0.1% 0.2% 0.1% 0.0% 0.0% 0.1% 0.3%
x264 [info]: mb I I16..4: 9.2% 79.0% 11.8%
x264 [info]: mb P I16..4: 1.4% 11.9% 1.8% P16..4: 36.3% 22.6% 14.1% 0.0% 0.0% skip:11.9%
x264 [info]: mb B I16..4: 0.1% 0.7% 0.2% B16..8: 35.7% 10.3% 3.5% direct: 9.2% skip:40.2% L0:38.4% L1:40.1% BI:21.5%
x264 [info]: 8x8 transform intra:77.3% inter:72.8%
x264 [info]: coded y,uvDC,uvAC intra: 76.5% 81.1% 59.0% inter: 31.3% 33.9% 4.8%
x264 [info]: i16 v,h,dc,p: 70% 14% 8% 7%
x264 [info]: i8 v,h,dc,ddl,ddr,vr,hd,vl,hu: 13% 17% 21% 6% 7% 8% 7% 10% 10%
x264 [info]: i4 v,h,dc,ddl,ddr,vr,hd,vl,hu: 11% 24% 6% 7% 12% 11% 10% 9% 9%
x264 [info]: i8c dc,h,v,p: 41% 24% 22% 14%
x264 [info]: Weighted P-Frames: Y:39.5% UV:34.2%
x264 [info]: ref P L0: 39.0% 12.9% 13.0% 6.9% 5.1% 4.4% 3.6% 2.3% 2.0% 1.9% 1.8% 1.7% 1.5% 1.4% 1.3% 1.1%
x264 [info]: ref B L0: 72.9% 10.9% 4.0% 2.6% 1.9% 1.6% 1.3% 0.9% 0.8% 0.7% 0.6% 0.6% 0.6% 0.4% 0.3%
x264 [info]: ref B L1: 94.5% 5.5%
x264 [info]: kb/s:2350.76
x264 [info]: encoded 14998 frames, 1.66 fps, 2350.76 kb/s
Other forum [Profile] [PM]
Display posts from previous:    
Reply to topic

The time now is: Today 06:54

All times are GMT + 3 Hours



You cannot post new topics in this forum
You cannot reply to topics in this forum
You cannot edit your posts in this forum
You cannot delete your posts in this forum
You cannot vote in polls in this forum
You cannot attach files in this forum
You cannot download files in this forum