Today is a free download without charge Download

Багажные войны. Двуличие / Baggage Battles. Double game (Брайан Хавелка)[2014.,Документальный, научно-познавательный, история, бизнес] SATRip

Reply to topic
 
Author
Message

sashau ®

Gender:

Longevity: 8 years 9 months

Posts: 3497

Торрент-статистика

Post 14-Feb-2014 13:06

[Quote]

Багажные войны. Двуличие / Baggage Battles. Double game - Режиссер / Телекомпания: Discovery
Русское название: Багажные войны
Оригинальное название: Baggage Battles
Год выпуска: 2014
Жанр: Документальный, научно-познавательный, история, бизнес
Выпущено: США, Discovery Communications, My Tupelo Entertainment
Описание:
Почти полмиллиона чемоданов теряется в лондонских аэропортах каждый год. Через шесть месяцев чемодан продают на аукционе. Смогут ли Марк, Билли, Лоренс и Салли заработать на купленных вещах?
- Багажные воины направляются на полицейский аукцион в Стоктоне (Калифорния), где один из экспертов находит маску известного голливудского персонажа.
Режиссёр: Брайан Хавелка
Перевод: Профессиональный (многоголосый, закадровый)
Продолжительность: ~ 00:20:23
Видеокодек: XVID
Битрейт видео: ~1922 kb/s
Размер кадра: 704 x 400
Качество видео: SATRip
Аудиокодек: MP3, 2ch.
Битрейт аудио: 128 kb/s

MediaInfo

Формат : AVI
Формат/Информация : Audio Video Interleave
Размер файла : 300 Мбайт
Продолжительность : 20 м.
Общий поток : 2060 Кбит/сек
Программа кодирования : VirtualDubMod 1.5.10.2 (build 2540/release)
Библиотека кодирования : VirtualDubMod build 2540/release
Видео
Идентификатор : 0
Формат : MPEG-4 Visual
Профиль формата : Advanced [email protected]
Параметр BVOP формата : 1
Параметр QPel формата : Нет
Параметр GMC формата : Без точки перехода
Параметр матрицы формата : Default (H.263)
Идентификатор кодека : XVID
Идентификатор кодека/Подсказка : XviD
Продолжительность : 20 м.
Битрейт : 1922 Кбит/сек
Ширина : 704 пикселя
Высота : 400 пикселей
Соотношение сторон : 16:9
Частота кадров : 25,000 кадров/сек
Цветовое пространство : YUV
Субдискретизация насыщенности : 4:2:0
Битовая глубина : 8 бит
Тип развёртки : Прогрессивная
Метод сжатия : С потерями
Бит/(Пиксели*Кадры) : 0.273
Размер потока : 280 Мбайт (93%)
Библиотека кодирования : XviD 1.2.1 (UTC 2008-12-04)
Аудио
Идентификатор : 1
Формат : MPEG Audio
Версия формата : Version 1
Профиль формата : Layer 3
Идентификатор кодека : 55
Идентификатор кодека/Подсказка : MP3
Продолжительность : 20 м.
Вид битрейта : Постоянный
Битрейт : 128 Кбит/сек
Каналы : 2 канала
Частота : 44,1 КГц
Метод сжатия : С потерями
Размер потока : 18,7 Мбайт (6%)
Выравнивание : Разделение по промежуткам
Продолжительность промежутка : 40 мс. (1,00 видеокадр)
Время предзагрузки промежутка : 500 мс.
Библиотека кодирования : LAME3.98r
Настройки программы : -m s -V 4 -q 2 -lowpass 17 -b 128
Скриншоты:          
Other forum [Profile] [PM]
Display posts from previous:    
Reply to topic

The time now is: Today 15:42

All times are GMT + 3 Hours



You cannot post new topics in this forum
You cannot reply to topics in this forum
You cannot edit your posts in this forum
You cannot delete your posts in this forum
You cannot vote in polls in this forum
You cannot attach files in this forum
You cannot download files in this forum