Today is a free download without charge Download

Крошка из Беверли-Хиллз 2 / Beverly Hills Chihuahua 2 (Алекс Замм / Alex Zamm) [2010, США, комедия, семейный, BDRip-AVC] Dub

Reply to topic
 
Author
Message

Delia ®

Gender:

Longevity: 9 years 1 month

Posts: 1821

Торрент-статистика

Post 01-Dec-2011 18:54

[Quote]

Крошка из Беверли-Хиллз 2 / Beverly Hills Chihuahua 2- Страна: США
Жанр: комедия, семейный
Год выпуска: 2010
Продолжительность: 01:23:44-Перевод: Профессиональный (дублированный)
Cубтитры: нет-Режиссер: Алекс Замм / Alex Zamm-В ролях: Морган Фэйрчайлд, Одетт Юстман, Эмили Осмент, Бриджит Мендлер, Кристин Лэйкин, Илэйн Хендрикс, Оливия Ньютон-Джон, Мэдисон Петтис, Эрни Хадсон, Джордж Лопез-Описание: Хлоя и Папи возвращаются в Беверли-Хиллз, где они поженились и стали счастливыми родителями на удивление вредных щенков, в то время как Сэм Кортес должен бороться, чтобы не выселили его родителей.-Доп. информация:
Премьера (мир)......................1 февраля 2011
Релиз на DVD..........................8 февраля 2011, «Уолт Дисней Компани СНГ»
Релиз на Blu-Ray.....................8 февраля 2011, «Уолт Дисней Компани СНГ»-Качество видео: BDRip-AVC
Формат видео: MKV-Видео: MPEG-4 AVC, 1024x576 (16:9), 23.976 fps, ~3095 kbps, 0.219 bit/pixel
Аудио: Russian, Audio Coding 3, 48 kHz, 5.1 ch, CBR 640 kbps | Дубляж
-

MediaInfo

General
Unique ID : 240987248433690393177615636906361751308 (0xB54C74AF2350ADB3A0381E770414070C)
Complete name : beverly.hills.chihuahua.2.mkv
Format : Matroska
File size : 2.19 GiB
Duration : 1h 23mn
Overall bit rate : 3 737 Kbps
Encoded date : UTC 2011-06-04 04:20:13
Writing application : mkvmerge v4.6.0 ('Still Crazy After All These Years') сборка от Mar 10 2011 02:50:32
Writing library : libebml v1.2.0 + libmatroska v1.1.0
Video
ID : 1
Format : AVC
Format/Info : Advanced Video Codec
Format profile : [email protected]
Format settings, CABAC : Yes
Format settings, ReFrames : 9 frames
Format settings, GOP : M=3, N=32
Codec ID : V_MPEG4/ISO/AVC
Duration : 1h 23mn
Bit rate : 3 095 Kbps
Width : 1 024 pixels
Height : 576 pixels
Display aspect ratio : 16:9
Frame rate : 23.976 fps
Color space : YUV
Chroma subsampling : 4:2:0
Bit depth : 8 bits
Scan type : Progressive
Bits/(Pixel*Frame) : 0.219
Stream size : 1.77 GiB (81%)
Title : Beverly Hills Chihuahua 2
Writing library : x264 core 114 r1924 08d04a4
Encoding settings : cabac=1 / ref=9 / deblock=1:-1:-1 / analyse=0x3:0x113 / me=umh / subme=10 / psy=1 / psy_rd=1.00:0.15 / mixed_ref=1 / me_range=32 / chroma_me=1 / trellis=2 / 8x8dct=1 / cqm=0 / deadzone=21,11 / fast_pskip=0 / chroma_qp_offset=-3 / threads=2 / sliced_threads=0 / nr=0 / decimate=1 / interlaced=0 / constrained_intra=0 / bframes=9 / b_pyramid=2 / b_adapt=2 / b_bias=0 / direct=3 / weightb=1 / open_gop=0 / weightp=2 / keyint=250 / keyint_min=23 / scenecut=40 / intra_refresh=0 / rc_lookahead=40 / rc=2pass / mbtree=1 / bitrate=3095 / ratetol=1.0 / qcomp=0.70 / qpmin=10 / qpmax=51 / qpstep=4 / cplxblur=20.0 / qblur=0.5 / ip_ratio=1.40 / aq=2:1.00
Language : English
Audio
ID : 2
Format : AC-3
Format/Info : Audio Coding 3
Mode extension : CM (complete main)
Codec ID : A_AC3
Duration : 1h 23mn
Bit rate mode : Constant
Bit rate : 640 Kbps
Channel(s) : 6 channels
Channel positions : Front: L C R, Side: L R, LFE
Sampling rate : 48.0 KHz
Bit depth : 16 bits
Compression mode : Lossy
Stream size : 383 MiB (17%)
Title : Dub
Language : Russian

Скриншоты

       

_________________
Человек – это канат, натянутый между животным и сверхчеловеком, – канат над пропастью.
В человеке ценно то, что он мост, а не цель. Фридрих Ницше
Other forum [Profile] [PM]
Display posts from previous:    
Reply to topic

The time now is: Today 18:40

All times are GMT + 3 Hours



You cannot post new topics in this forum
You cannot reply to topics in this forum
You cannot edit your posts in this forum
You cannot delete your posts in this forum
You cannot vote in polls in this forum
You cannot attach files in this forum
You cannot download files in this forum