Today is a free download without charge Download

Доктор Айболит (Давид Черкасский) [1984-85 гг, мультфильм, мюзикл, семейный, DVDRip]

Reply to topic
 
Author
Message

Omen ®

Longevity: 7 years 11 months

Posts: 181087

Торрент-статистика

Post 13-Feb-2014 14:02

[Quote]

-Доктор Айболит- Страна: CCCP
Жанр: мультфильм, мюзикл, семейный
Продолжительность: 01:08:27
Год выпуска: 1984-85 гг
Русские субтитры: нет
Режиссёр: Давид Черкасский
Роли озвучивали: Георгий Кишко, Семен Фарада, Мария Миронова, Зиновий Гердт, Людмила Иванова, Людмила Ларина, Зоя Пыльнова, Всеволод Абдулов, Евгений Паперный, Ю. Врублевский...
Описание: Злой разбойник Бармалей, именем которого давно пугали детей, сидит в тюрьме под охраной Гиппопотама. Друзья-пираты помогают своему главарю сбежать, но Гиппопотам тайком проникает на их корабль и старается выведать планы злодеев. В это время тётушка Варвара, сварливая сестра доброго доктора Айболита, уходит от брата, заявляя, что ненавидит зверей, которых любит и лечит доктор. По воле случая Варвара попадает на пиратскую шхуну. Шхуна причаливает к берегам Африки, где разбойники устраивают для зверей представление «Муха-Цокотуха» (партию Мухи исполняет Варвара), а затем раздают отравленное угощение, и все звери заболевают. Гиппопотам, который всё видел, звонит в Ленинград Айболиту…
kinopoisk.ru =>
Семпл: http://multi-up.com/950467
Качество: DVDRip [исходник: DVD5 R5]
Формат: AVI
Видео: 704x528 (1.33:1), 25 fps, XviD build 73 ~1382 kbps avg, 0.15 bit/pixel
Аудио: 48 kHz, MPEG Layer 3, 2 ch, ~128.00 kbps avg
Субтитры: отсутствуют

Серии:

01. Доктор Айболит и его звери (1984 г.) — 0:09:41
02. Бармалей и морские пираты (1984 г.) — 00:09:46
03. Варвара – злая сестра Айболита (1984 г.) — 00:09:35
04. Коварный план Бармалея (1985 г.) — 00:09:59
05. Айболит спешит на помощь (1985 г.) — ~00:09:51
06. Крокодил и солнце (1985 г.) — 00:09:36
07. Спасибо, доктор! (1985 г.) — 00:09:59

Подробные технические данные

ОбщееПолное имя : D:\Doktor.Aibolit.1985.DVDRip-745.aviФормат : AVIФормат/Информация : Audio Video InterleaveРазмер файла : 744 МбайтПродолжительность : 1 ч. 8 м.Общий поток : 1520 Кбит/секПрограмма кодирования : VirtualDubModRus 1.5.10.2 (build 2542/release)Библиотека кодирования : VirtualDubMod build 2542/release
ВидеоИдентификатор : 0Формат : MPEG-4 VisualПрофиль формата : Advanced [email protected]Параметр BVOP формата : 1Параметр QPel формата : НетПараметр GMC формата : Без точки переходаПараметр матрицы формата : ВыборочнаяИдентификатор кодека : XVIDИдентификатор кодека/Подсказка : XviDПродолжительность : 1 ч. 8 м.Битрейт : 1383 Кбит/секШирина : 704 пикселяВысота : 528 пикселейСоотношение сторон : 4:3Частота кадров : 25,000 кадров/секЦветовое пространство : YUVСубдискретизация насыщенности : 4:2:0Битовая глубина : 8 битТип развёртки : ПрогрессивнаяМетод сжатия : С потерямиБит/(Пиксели*Кадры) : 0.149Размер потока : 677 Мбайт (91%)Библиотека кодирования : XviD 73
АудиоИдентификатор : 1Формат : MPEG AudioВерсия формата : Version 1Профиль формата : Layer 3Идентификатор кодека : 55Идентификатор кодека/Подсказка : MP3Продолжительность : 1 ч. 8 м.Вид битрейта : ПостоянныйБитрейт : 128 Кбит/секКаналы : 2 каналаЧастота : 48,0 КГцМетод сжатия : С потерямиРазмер потока : 62,7 Мбайт (8%)Выравнивание : Соединение по промежуткамПродолжительность промежутка : 40 мс. (1,00 видеокадр)Время предзагрузки промежутка : 504 мс.Библиотека кодирования : LAME3.99rНастройки программы : -m s -V 4 -q 2 -lowpass 17 -b 128

Скриншоты

Other forum [Profile] [PM]
Similar theme
Forum Topic Author Torrent Replies Last Post
./templates/default/images/folder_dl.gif Новинки (HD|DVD|BD|WEB|TV|SAT|PDTV|-Rip) Удивительное путешествие доктора Дулиттла / Dolittle (Стивен Гейган) [2020 г., приключения, комедия, семейный, фэнтези, BDRip]MVO | HDRezka Studio kilmister777
1 | 0

0 | 598

0

2020-03-31 11:14
kilmister777 Latest
Display posts from previous:    
Reply to topic

The time now is: Today 18:04

All times are GMT + 3 Hours



You cannot post new topics in this forum
You cannot reply to topics in this forum
You cannot edit your posts in this forum
You cannot delete your posts in this forum
You cannot vote in polls in this forum
You cannot attach files in this forum
You cannot download files in this forum