Today is a free download without charge Download

Одноклассники.ru: НаCLICKай удачу (Павел Худяков) [2013, комедия, мелодрама, BDRip 720p] [Лицензия]

Reply to topic
 
Author
Message

DED ®

Longevity: 7 years 11 months

Posts: 3943

Торрент-статистика

Post 12-Feb-2014 19:09

[Quote]

--Одноклассники.ru: НаCLICKай удачу-- Год выхода: 2013
Страна: Россия
Производство: Худяков production
Жанр: комедия, мелодрама
Продолжительность: 01:43:58
Озвучивание: Оригинал [Лицензия]-Режиссер: Павел Худяков-В ролях: Пётр Фёдоров, Фёдор Бондарчук, Корнелия Поляк, Сергей Друзьяк, Тимати, Снуп Догг, Сергей Никоненко, Александр Ревва, Ольга Тумайкина, Семён Стругачев...-О фильме: Круто, когда есть кнопка, на которую жмешь, и все становится по-твоему! Именно такая попала в руки молодому креативщику и тотальному неудачнику Леше. Теперь у него высокооплачиваемая работа, дорогая машина, стильный гардероб и, конечно, идеальная девушка. Достаточно одного клика! Просто надо знать, куда жать!-- --Качество: BDRip 720p
Формат: MKV
Видео кодек: H.264
Аудио кодек: AC3
Видео: 1280x544 (2.35:1), 24.000 fps, MPEG-4 AVC, ~4200 kbps avg, 0.251 bit/pixel
Аудио: 48.0 kHz, AC3 Dolby Digital, 5.1 (L,C,R,l,r) + LFE ch, ~640.00 kbps avg
Субтитры: нет
Дополнительно: Сохранены оригинальные чаптеры, как на Blu-Ray.--

Media Info

Format : Matroska
Format version : Version 4 / Version 2
File size : 3.52 GiB
Duration : 1h 43mn
Overall bit rate : 4 842 Kbps
Movie name : CMEGRoup
Encoded date : UTC 2014-02-08 18:40:48
Writing application : mkvmerge v6.7.0 ('Back to the Ground') 32bit built on Jan 8 2014 15:03:17
Writing library : libebml v1.3.0 + libmatroska v1.4.1
Video
ID : 1
Format : AVC
Format/Info : Advanced Video Codec
Format profile : [email protected]
Format settings, CABAC : Yes
Format settings, ReFrames : 10 frames
Codec ID : V_MPEG4/ISO/AVC
Duration : 1h 43mn
Bit rate : 4 200 Kbps
Width : 1 280 pixels
Height : 544 pixels
Display aspect ratio : 2.35:1
Frame rate : 24.000 fps
Color space : YUV
Chroma subsampling : 4:2:0
Bit depth : 8 bits
Scan type : Progressive
Bits/(Pixel*Frame) : 0.251
Stream size : 2.98 GiB (85%)
Writing library : x264 core 138 r2358 9e941d1
Encoding settings : cabac=1 / ref=10 / deblock=1:-3:-3 / analyse=0x3:0x113 / me=umh / subme=11 / psy=1 / psy_rd=1.00:0.00 / mixed_ref=1 / me_range=32 / chroma_me=1 / trellis=2 / 8x8dct=1 / cqm=0 / deadzone=21,11 / fast_pskip=1 / chroma_qp_offset=-2 / threads=12 / lookahead_threads=1 / sliced_threads=0 / nr=0 / decimate=1 / interlaced=0 / bluray_compat=0 / constrained_intra=0 / bframes=5 / b_pyramid=2 / b_adapt=1 / b_bias=0 / direct=2 / weightb=1 / open_gop=0 / weightp=2 / keyint=240 / keyint_min=24 / scenecut=40 / intra_refresh=0 / rc_lookahead=40 / rc=2pass / mbtree=1 / bitrate=4200 / ratetol=1.0 / qcomp=0.60 / qpmin=10 / qpmax=51 / qpstep=4 / cplxblur=20.0 / qblur=0.5 / vbv_maxrate=62500 / vbv_bufsize=78125 / nal_hrd=none / ip_ratio=1.40 / aq=1:1.00 / zones=145070,149723,q=40
Language : English
Default : Yes
Forced : No
Audio
ID : 2
Format : AC-3
Format/Info : Audio Coding 3
Mode extension : CM (complete main)
Format settings, Endianness : Big
Codec ID : A_AC3
Duration : 1h 43mn
Bit rate mode : Constant
Bit rate : 640 Kbps
Channel(s) : 6 channels
Channel positions : Front: L C R, Side: L R, LFE
Sampling rate : 48.0 KHz
Bit depth : 16 bits
Compression mode : Lossy
Stream size : 476 MiB (13%)
Default : Yes
Forced : No
Menu
00:00:00.000 : en:00:00:00.000
00:14:06.792 : en:00:14:06.792
00:22:30.875 : en:00:22:30.875
00:36:56.667 : en:00:36:56.667
00:51:14.958 : en:00:51:14.958
01:04:49.292 : en:01:04:49.292
01:19:54.000 : en:01:19:54.000
01:30:28.583 : en:01:30:28.583

Скриншоты

     
-- --
Other forum [Profile] [PM]
Display posts from previous:    
Reply to topic

The time now is: Today 16:00

All times are GMT + 3 Hours



You cannot post new topics in this forum
You cannot reply to topics in this forum
You cannot edit your posts in this forum
You cannot delete your posts in this forum
You cannot vote in polls in this forum
You cannot attach files in this forum
You cannot download files in this forum