Today is a free download without charge Download

Фанат 2 ( Владимир Феоктистов)[1990.,Боевик] DVDRip

Reply to topic
 
Author
Message

sashau ®

Gender:

Longevity: 9 years 4 months

Posts: 3497

Торрент-статистика

Post 10-Feb-2014 12:54

[Quote]

Фанат 2 - Год выпуска: 1990
Производство: СССР, Творческое объединение «Ровесник»
Жанр: Боевик
Субтитры: Отсутствуют
Режиссер: Владимир Феоктистов
Сценарий: Георгий Котов, Семен Калика
Актеры: Олег Фомин, Александра Колкунова, Анатолий Равикович, Олег Кантемиров, Евгения Добровольская, Юрий Горобец, Евгений Бахар, Антон Андросов, Георгий Клюев, Мартиньш Вилсонс, Семен Фурман, Юрий Гусев
Описание фильма:
После финального боя, выигранного непокорным каратистом, Мэтр устраивает кровавую разборку, лично убивая первого учителя Малыша. Сам Малыш, истекая кровью, с трудом бежит.
Мафия посчитала его погибшим, и появление Малыша на пляже Одессы стало для Мэтра неприятным сюрпризом. Он слишком много видел и должен умереть… Малыш больше не хочет крови, он один против всех, но охота уже объявлена… Цена свободы будет очень высокой.

Продолжительность: 01:24:09
Качество видео: DVDRip
Видеокодек: DivX 5
Битрейт видео: ~2000 кбит/c
Размер кадра: 704 х 544
Аудиокодек: MP3, 2 ch
Битрейт аудио: 128 кбит/c

MediaInfo:

General
Complete name : D:Fanat_2_.avi
Format : DivX
Format/Info : Hack of AVI
File size : 1.26 GiB
Duration : 1h 24mn
Overall bit rate : 2 138 Kbps
Video
ID : 0
Format : MPEG-4 Visual
Format settings, BVOP : 1
Format settings, QPel : No
Format settings, GMC : No warppoints
Format settings, Matrix : Default (H.263)
Muxing mode : Packed bitstream
Codec ID : DX50
Codec ID/Hint : DivX 5
Duration : 1h 24mn
Bit rate : 2 000 Kbps
Width : 704 pixels
Height : 544 pixels
Display aspect ratio : 1.294
Frame rate : 25.000 fps
Color space : YUV
Chroma subsampling : 4:2:0
Bit depth : 8 bits
Scan type : Progressive
Compression mode : Lossy
Bits/(Pixel*Frame) : 0.209
Stream size : 1.18 GiB (94%)
Title : Main
Writing library : DivX 6.5.1 (UTC 2007-03)
Audio
ID : 1
Format : MPEG Audio
Format version : Version 1
Format profile : Layer 3
Mode : Joint stereo
Mode extension : MS Stereo
Codec ID : 55
Codec ID/Hint : MP3
Duration : 1h 24mn
Bit rate mode : Constant
Bit rate : 128 Kbps
Channel(s) : 2 channels
Sampling rate : 48.0 KHz
Compression mode : Lossy
Stream size : 77.0 MiB (6%)
Alignment : Split accross interleaves
Interleave, duration : 40 ms (1.00 video frame)
Interleave, preload duration : 500 ms
Title : Audio
Скриншоты:
       
       
Other forum [Profile] [PM]
Display posts from previous:    
Reply to topic

The time now is: Today 23:59

All times are GMT + 3 Hours



You cannot post new topics in this forum
You cannot reply to topics in this forum
You cannot edit your posts in this forum
You cannot delete your posts in this forum
You cannot vote in polls in this forum
You cannot attach files in this forum
You cannot download files in this forum