Today is a free download without charge Download

Гадкий утенок (Дегтярев Владимир) [1956 г., рисованная анимация, DVDRip-AVC] КП, реставрация

Reply to topic
 
Author
Message

Omen ®

Longevity: 7 years 11 months

Posts: 181087

Торрент-статистика

Post 07-Feb-2014 14:00

[Quote]

Гадкий утенок-Год выпуска: 1956
Страна: СССР
Жанр: мультфильм, сказка, семейный
Продолжительность: 00:18:23
Русские субтитры: нет
Режиссер: Владимир Дегтярев
Роли озвучили: Г. Любарская, В. Егорова
Описание: Картина рассказывает об утёнке, появившемся на свет неказистым и не похожим на других обитателей птичьего двора. Бедный утёнок подвергается насмешкам и незаслуженным издевательствам. Всё меняется с наступлением осени...
Качество: DVDRip-AVC
Формат: MKV
Видео: 720x556 (1.381) @ 768x556, 25.000 fps, AVC, ~2216 Kbps, 0.221 bits/pixel
Аудио: Russian, 48.0 KHz, AC3, 6 ch, 448 Kbps

Скриншоты

Тех.данные

General
Unique ID : 192673225597965485175087149535594601067 (0x90F383728354C82D827B00ADD6F0DA6B)
Complete name : D:\Tor_MY\Гадкий утенок.mkv
Format : Matroska
Format version : Version 4 / Version 2
File size : 357 MiB
Duration : 18mn 22s
Overall bit rate : 2 718 Kbps
Movie name : Gadkyi utenok.mkv by Nyc-2008
Encoded date : UTC 2014-02-07 08:59:15
Writing application : mkvmerge v6.7.0 ('Back to the Ground') 32bit built on Jan 8 2014 15:03:17
Writing library : libebml v1.3.0 + libmatroska v1.4.1
Video
ID : 1
Format : AVC
Format/Info : Advanced Video Codec
Format profile : [email protected]
Format settings, CABAC : Yes
Format settings, ReFrames : 16 frames
Codec ID : V_MPEG4/ISO/AVC
Duration : 18mn 22s
Bit rate : 2 216 Kbps
Width : 720 pixels
Height : 556 pixels
Display aspect ratio : 1.381
Frame rate mode : Constant
Frame rate : 25.000 fps
Color space : YUV
Chroma subsampling : 4:2:0
Bit depth : 8 bits
Scan type : Progressive
Bits/(Pixel*Frame) : 0.221
Stream size : 291 MiB (82%)
Writing library : x264 core 142 r2389kMod 956c8d8
Encoding settings : cabac=1 / ref=16 / deblock=1:-1:-1 / analyse=0x3:0x113 / me=umh / subme=10 / psy=1 / fade_compensate=0.00 / psy_rd=1.00:0.00 / mixed_ref=1 / me_range=24 / chroma_me=1 / trellis=2 / 8x8dct=1 / cqm=0 / deadzone=21,11 / fast_pskip=0 / chroma_qp_offset=-2 / threads=6 / lookahead_threads=1 / sliced_threads=0 / nr=0 / decimate=1 / interlaced=0 / bluray_compat=0 / constrained_intra=0 / fgo=0 / bframes=16 / b_pyramid=2 / b_adapt=2 / b_bias=0 / direct=1 / weightb=1 / open_gop=0 / weightp=2 / keyint=250 / keyint_min=25 / scenecut=40 / intra_refresh=0 / rc=crf / mbtree=0 / crf=18.0000 / qcomp=0.60 / qpmin=0 / qpmax=69 / qpstep=4 / ip_ratio=1.40 / pb_ratio=1.30 / aq=1:1.00
Default : Yes
Forced : No
Audio
ID : 2
Format : AC-3
Format/Info : Audio Coding 3
Mode extension : CM (complete main)
Format settings, Endianness : Big
Codec ID : A_AC3
Duration : 18mn 22s
Bit rate mode : Constant
Bit rate : 448 Kbps
Channel(s) : 6 channels
Channel positions : Front: L C R, Side: L R, LFE
Sampling rate : 48.0 KHz
Bit depth : 16 bits
Compression mode : Lossy
Delay relative to video : 173ms
Stream size : 58.9 MiB (16%)
Language : Russian
Default : Yes
Forced : No
Other forum [Profile] [PM]
Display posts from previous:    
Reply to topic

The time now is: Today 11:53

All times are GMT + 3 Hours



You cannot post new topics in this forum
You cannot reply to topics in this forum
You cannot edit your posts in this forum
You cannot delete your posts in this forum
You cannot vote in polls in this forum
You cannot attach files in this forum
You cannot download files in this forum