Today is a free download without charge Download

Сказка о царе Салтане (Иван Иванов-Вано, Лев Мильчин) [1984 г., мультфильм, сказка, семейный, DVDRip-AVC] КП, реставрация

Reply to topic
 
Author
Message

Omen ®

Longevity: 7 years 11 months

Posts: 181087

Торрент-статистика

Post 04-Feb-2014 14:00

[Quote]

Сказка о царе Салтане-Год выпуска: 1984
Страна: СССР
Жанр: мультфильм, сказка, семейный
Продолжительность: 00:53:08
Русские субтитры: нет
Режиссер: Иван Иванов-Вано, Лев Мильчин
Роли озвучили: В ролях: Анастасия Зуева, Михаил Зимин, Алексей Золотницкий, Наталья Боронина, Роман Филиппов, Алла Покровская, Николай Граббе, Мария Виноградова, Борис Новиков, Людмила Иванова
Текст читает: Авангард Леонтьев
Описание: Три девицы под окном пряли поздно вечерком. «Кабы я была царица, — Говорит одна девица…
Качество: DVDRip-AVC
Формат: MKV
Видео: 712x576 (4:3) @ 760x576, 25.000 fps, AVC, ~2493 Kbps, 0.243 bits/pixel
Аудио: Russian, 48.0 KHz, AC3, 6 ch, 448 Kbps

Скриншоты

Тех.данные

General
Unique ID : 181474245695975992741402831407551375589 (0x8886AB1BBE941158AE95B42F5EEC68E5)
Complete name : D:\Tor_MY\Saltan.mkv
Format : Matroska
Format version : Version 4 / Version 2
File size : 1.11 GiB
Duration : 53mn 8s
Overall bit rate : 3 000 Kbps
Movie name : Skazka o Saltane.mkv by Nyc-2008
Encoded date : UTC 2014-02-03 16:16:09
Writing application : mkvmerge v6.7.0 ('Back to the Ground') 32bit built on Jan 8 2014 15:03:17
Writing library : libebml v1.3.0 + libmatroska v1.4.1
Video
ID : 1
Format : AVC
Format/Info : Advanced Video Codec
Format profile : [email protected]
Format settings, CABAC : Yes
Format settings, ReFrames : 16 frames
Codec ID : V_MPEG4/ISO/AVC
Duration : 53mn 8s
Bit rate : 2 493 Kbps
Width : 712 pixels
Height : 576 pixels
Display aspect ratio : 4:3
Original display aspect ratio : 4:3
Frame rate mode : Constant
Frame rate : 25.000 fps
Color space : YUV
Chroma subsampling : 4:2:0
Bit depth : 8 bits
Scan type : Progressive
Bits/(Pixel*Frame) : 0.243
Stream size : 947 MiB (83%)
Writing library : x264 core 142 r2389kMod 956c8d8
Encoding settings : cabac=1 / ref=16 / deblock=1:-1:-1 / analyse=0x3:0x113 / me=umh / subme=10 / psy=1 / fade_compensate=0.00 / psy_rd=1.00:0.00 / mixed_ref=1 / me_range=24 / chroma_me=1 / trellis=2 / 8x8dct=1 / cqm=0 / deadzone=21,11 / fast_pskip=0 / chroma_qp_offset=-2 / threads=6 / lookahead_threads=1 / sliced_threads=0 / nr=0 / decimate=1 / interlaced=0 / bluray_compat=0 / constrained_intra=0 / fgo=0 / bframes=16 / b_pyramid=2 / b_adapt=2 / b_bias=0 / direct=1 / weightb=1 / open_gop=0 / weightp=2 / keyint=250 / keyint_min=25 / scenecut=40 / intra_refresh=0 / rc=crf / mbtree=0 / crf=18.0000 / qcomp=0.60 / qpmin=0 / qpmax=69 / qpstep=4 / ip_ratio=1.40 / pb_ratio=1.30 / aq=1:1.00
Default : Yes
Forced : No
Audio
ID : 2
Format : AC-3
Format/Info : Audio Coding 3
Mode extension : CM (complete main)
Format settings, Endianness : Big
Codec ID : A_AC3
Duration : 53mn 8s
Bit rate mode : Constant
Bit rate : 448 Kbps
Channel(s) : 6 channels
Channel positions : Front: L C R, Side: L R, LFE
Sampling rate : 48.0 KHz
Bit depth : 16 bits
Compression mode : Lossy
Stream size : 170 MiB (15%)
Language : Russian
Default : Yes
Forced : No
Other forum [Profile] [PM]
Similar theme
Forum Topic Author Torrent Replies Last Post
./templates/default/images/folder_dl.gif Детская литература Толстой, Андерсен, Братья Гримм и другие авторы. | Детские аудио сказки на DVD (5 из 7) [2007] [MP3] Omen
0 | 1

1 | 1737

0

2011-07-07 17:41
Nugeiro Latest
Display posts from previous:    
Reply to topic

The time now is: Today 14:05

All times are GMT + 3 Hours



You cannot post new topics in this forum
You cannot reply to topics in this forum
You cannot edit your posts in this forum
You cannot delete your posts in this forum
You cannot vote in polls in this forum
You cannot attach files in this forum
You cannot download files in this forum