Today is a free download without charge Download

Географ глобус пропил (Александр Велединский) [2013, Россия, драма, BDRip 1080p]

Reply to topic
 
Author
Message

Omen ®

Longevity: 8 years 10 months

Posts: 181086

Торрент-статистика

Post 03-Feb-2014 23:00

[Quote]

Географ глобус пропил- Страна: Россия
Жанр: драма
Год выпуска: 2013
Продолжительность: 02:04:51-Перевод: Не требуется
Cубтитры: отсутствуют-Режиссер: Александр Велединский
В ролях: Константин Хабенский, Елена Лядова, Александр Робак, Евгения Брик, Анна Уколова, Агриппина Стеклова, Евгения Крегжде, Максим Лагашкин, Анфиса Черных, Анастасия Золотко-Описание: Молодой биолог Виктор Служкин от безденежья идет работать учителем географии в обычную пермскую школу. Он борется, а потом и дружит с учениками, конфликтует с завучем, ведет десятиклассников в поход — сплавляться по реке. Еще он пьет с друзьями вино, пытается ужиться с женой и водит в детский сад маленькую дочку. Он просто живет…-IMDB | КиноПоиск | Сэмпл-Качество видео: BDRip 1080p | исх. Географ глобус пропил (2013) Blu-ray 1080p AVC DTS-HD 5.1 - HDCLUB
Формат видео: MKV-Видео: 1920x804 at 24.000 fps (True24p), [email protected], crf, ~10311 kbps avg
Аудио: 48 kHz/16-bit, DTS, 3/2 (L,C,R,l,r) + LFE ch, ~1509.00 kbps avg | Не требуется-Формат субтитров: отсутствуют
Навигация по главам: Присутствует-

MediaInfo

Общее
Уникальный идентификатор : 224546189649432765198793310107847387397 (0xA8EE05E6E47A1E0989EDE941DA706905)
Полное имя : Geograf.globus.propil.2013.1080p.BluRay.Rus.HDCLUB.mkv
Формат : Matroska
Версия формата : Version 2
Размер файла : 10,3 Гбайт
Продолжительность : 2 ч. 4 м.
Общий поток : 11,8 Мбит/сек
Название фильма : Release for HDCLUB
Дата кодирования : UTC 2013-12-25 18:52:05
Программа кодирования : mkvmerge v5.8.0 ('No Sleep / Pillow') built on Sep 2 2012 15:37:04
Библиотека кодирования : libebml v1.2.3 + libmatroska v1.3.0
Видео
Идентификатор : 1
Формат : AVC
Формат/Информация : Advanced Video Codec
Профиль формата : [email protected]
Параметр CABAC формата : Да
Параметр ReFrames формата : 4 кадра
Идентификатор кодека : V_MPEG4/ISO/AVC
Продолжительность : 2 ч. 4 м.
Битрейт : 10,1 Мбит/сек
Ширина : 1920 пикселей
Высота : 804 пикселя
Соотношение сторон : 2,40:1
Режим частоты кадров : Постоянный
Частота кадров : 24,000 кадра/сек
Цветовое пространство : YUV
Субдискретизация насыщенности : 4:2:0
Битовая глубина : 8 бит
Тип развёртки : Прогрессивная
Бит/(Пиксели*Кадры) : 0.272
Размер потока : 8,79 Гбайт (85%)
Заголовок : Geograf.globus.propil.2013.1080p.BluRay.Rus.HDCLUB
Библиотека кодирования : x264 core 140 r2377 1ca7bb9
Настройки программы : cabac=1 / ref=4 / deblock=1:-3:-3 / analyse=0x3:0x133 / me=umh / subme=11 / psy=1 / psy_rd=1.05:0.00 / mixed_ref=1 / me_range=32 / chroma_me=1 / trellis=2 / 8x8dct=1 / cqm=0 / deadzone=21,11 / fast_pskip=0 / chroma_qp_offset=-2 / threads=12 / lookahead_threads=2 / sliced_threads=0 / nr=0 / decimate=1 / interlaced=0 / bluray_compat=0 / constrained_intra=0 / bframes=7 / b_pyramid=2 / b_adapt=2 / b_bias=0 / direct=1 / weightb=1 / open_gop=0 / weightp=2 / keyint=240 / keyint_min=24 / scenecut=40 / intra_refresh=0 / rc_lookahead=80 / rc=crf / mbtree=0 / crf=17.0 / qcomp=0.60 / qpmin=0 / qpmax=69 / qpstep=4 / vbv_maxrate=62500 / vbv_bufsize=78125 / crf_max=0.0 / nal_hrd=none / filler=0 / ip_ratio=1.30 / pb_ratio=1.15 / aq=2:0.90
Язык : Russian
Default : Да
Forced : Нет
Аудио
Идентификатор : 2
Формат : DTS
Формат/Информация : Digital Theater Systems
Режим : 16
Параметр Endianness формата : Big
Идентификатор кодека : A_DTS
Продолжительность : 2 ч. 4 м.
Вид битрейта : Постоянный
Битрейт : 1509 Кбит/сек
Каналы : 6 каналов
Расположение каналов : Front: L C R, Side: L R, LFE
Частота : 48,0 КГц
Битовая глубина : 16 бит
Метод сжатия : С потерями
Размер потока : 1,32 Гбайт (13%)
Заголовок : DTS 5.1 @ 1509 kbps - Original [BD RUS]
Язык : Russian
Default : Да
Forced : Нет
Меню
00:00:00.000 : ru:Chapter 1
00:12:18.708 : ru:Chapter 2
00:18:58.291 : ru:Chapter 3
00:27:08.541 : ru:Chapter 4
00:35:54.125 : ru:Chapter 5
00:45:32.458 : ru:Chapter 6
00:53:58.333 : ru:Chapter 7
01:02:12.333 : ru:Chapter 8
01:12:47.416 : ru:Chapter 9
01:20:55.041 : ru:Chapter 10
01:29:32.583 : ru:Chapter 11
01:36:47.916 : ru:Chapter 12
01:44:25.291 : ru:Chapter 13
01:52:39.250 : ru:Chapter 14
01:57:48.916 : ru:Chapter 15

x264 log

raw [info]: 1920x804p 1:1 @ 24/1 fps (cfr)
x264 [info]: using SAR=1/1
x264 [info]: using cpu capabilities: MMX2 SSE2Fast SSSE3 SSE4.2 AVX XOP FMA4 LZCNT
x264 [info]: profile High, level 4.1
x264 [info]: frame I:1126 Avg QP:15.53 size:191926
x264 [info]: frame P:40659 Avg QP:16.90 size: 81186
x264 [info]: frame B:138014 Avg QP:18.07 size: 44471
x264 [info]: consecutive B-frames: 2.1% 3.7% 7.3% 28.8% 15.2% 27.7% 7.6% 7.6%
x264 [info]: mb I I16..4: 5.4% 77.5% 17.2%
x264 [info]: mb P I16..4: 3.5% 28.1% 5.9% P16..4: 23.9% 25.2% 8.5% 1.3% 0.1% skip: 3.6%
x264 [info]: mb B I16..4: 1.4% 8.3% 1.3% B16..8: 31.6% 20.5% 3.5% direct:13.8% skip:19.4% L0:38.6% L1:41.5% BI:19.9%
x264 [info]: 8x8 transform intra:75.1% inter:51.8%
x264 [info]: coded y,uvDC,uvAC intra: 79.5% 74.8% 38.7% inter: 40.8% 45.0% 6.5%
x264 [info]: i16 v,h,dc,p: 20% 17% 11% 52%
x264 [info]: i8 v,h,dc,ddl,ddr,vr,hd,vl,hu: 15% 13% 16% 8% 8% 9% 9% 10% 12%
x264 [info]: i4 v,h,dc,ddl,ddr,vr,hd,vl,hu: 31% 14% 17% 5% 7% 7% 7% 6% 6%
x264 [info]: i8c dc,h,v,p: 31% 31% 26% 12%
x264 [info]: Weighted P-Frames: Y:5.3% UV:4.1%
x264 [info]: ref P L0: 54.4% 13.0% 22.1% 9.5% 1.0% 0.0%
x264 [info]: ref B L0: 87.6% 10.3% 2.1%
x264 [info]: ref B L1: 92.6% 7.4%
x264 [info]: kb/s:10309.75
encoded 179799 frames, 4.23 fps, 10309.75 kb/s

Дополнительно

Сохранены оригинальные чаптеры как на Blu-Ray
by N1NT3NDO

Скриншоты

Other forum [Profile] [PM]
Display posts from previous:    
Reply to topic

The time now is: Today 13:20

All times are GMT + 3 Hours



You cannot post new topics in this forum
You cannot reply to topics in this forum
You cannot edit your posts in this forum
You cannot delete your posts in this forum
You cannot vote in polls in this forum
You cannot attach files in this forum
You cannot download files in this forum