Сегодня идет свободное скачивание без начисления Download

Индиана Джонс / Indiana Jones (1981-1984-1994-2008) BDRip [720p] [hand made 60fps] [Квадрология]

Ответить на тему
 
Автор
Сообщение

Varius ®

Пол:

Стаж: 8 лет 7 месяцев

Сообщений: 2681

Откуда: Hell

Торрент-статистика

Пост 03-Фев-2014 19:03

[Цитировать]

Индиана Джонс / Indiana Jones (1981-1984-1994-2008) BDRip [720p] [hand made 60fps] [Квадрология]-Индиана Джонс:В поисках утраченного храма
Год выпуска: 1981
Жанр: Боевик , Приключения
Производство:США
Описание фильма:
Известный археолог и специалист по оккультным наукам доктор Джонс получает опасное задание от правительства США. Он должен отправиться на поиски уникальной реликвии — священного Ковчега. Но Индиана и не подозревает, что аналогичный приказ уже получили тайные агенты Адольфа Гитлера…
Режиссер: Стивен Спилберг
Актеры: Харрисон Форд , Карен Аллен , Пол Фримен , Рональд , Лейси , Джон Рис-Дэвис , Денхолм Эллиот , Альфред Молина , Вольф Калер , Энтони Хиггинс , Вик Тэблиан
Продолжительность: 01:55:19
Качество видео: BDRip
Перевод : Многоголосый Закадровый (НТВ+)
Язык субтитров : Rus (полные) , Eng (полные)
Вид субтитров: Вшитые

Видеокодек: MPEG-4 AVC/H.264
Битрейт видео: ~11600 kb/s
Размер кадра: 1280*544
Аудиокодек: AC3 5.1 (обе дорожки)
Битрейт аудио RUS: 448 kb/s
Битрейт аудио ENG: 640 kb/s
Сэмпл: Ссылка

Рецензия, отзыв о фильме

В 2,5 раза больше кадров!
В 2,5 раза больше исходника!
В 2,5 раза плавнее! (59,94 fps)
Приятного просмотра.

MI

Общее
Уникальный идентификатор : 180594352914567631907742177267172567944 (0x87DD350B7CE1B66A999951D484DCEB88)
Полное имя : Y:\Фильмы\Индиана Джонс\Индиана Джонс 1 В поисках утраченного ковчега.mkv
Формат : Matroska
Версия формата : Version 4 / Version 2
Размер файла : 10,4 Гбайт
Продолжительность : 1 ч. 55 м.
Общий поток : 12,9 Мбит/сек
Название фильма : Р�ндиана Джонс: Р’ поисках утраченного ковчега / Raiders of the Lost Ark (1981)
Дата кодирования : UTC 2014-02-03 07:24:21
Программа кодирования : mkvmerge v6.7.0 ('Back to the Ground') 64bit built on Jan 8 2014 15:10:52
Библиотека кодирования : libebml v1.3.0 + libmatroska v1.4.1
Видео
Идентификатор : 1
Формат : AVC
Формат/Информация : Advanced Video Codec
Профиль формата : [url=mailto:[email protected]][email protected][/url]
Параметр CABAC формата : Да
Параметр ReFrames формата : 9 кадров
Идентификатор кодека : V_MPEG4/ISO/AVC
Продолжительность : 1 ч. 55 м.
Битрейт : 11,6 Мбит/сек
Ширина : 1280 пикселей
Высота : 544 пикселя
Соотношение сторон : 2,35:1
Режим частоты кадров : Постоянный
Частота кадров : 59,880 кадров/сек
Частота кадров в оригинале : 59,940 кадров/сек
Цветовое пространство : YUV
Субдискретизация насыщенности : 4:2:0
Битовая глубина : 8 бит
Тип развёртки : Прогрессивная
Бит/(Пиксели*Кадры) : 0.277
Размер потока : 9,32 Гбайт (90%)
Библиотека кодирования : x264 core 130 r2273 b3065e6
Настройки программы : cabac=1 / ref=9 / deblock=1:0:0 / analyse=0x3:0 / me=umh / subme=9 / psy=1 / psy_rd=1.00:0.10 / mixed_ref=1 / me_range=24 / chroma_me=0 / trellis=1 / 8x8dct=1 / cqm=0 / deadzone=21,11 / fast_pskip=0 / chroma_qp_offset=-3 / threads=6 / lookahead_threads=1 / sliced_threads=0 / nr=0 / decimate=0 / interlaced=0 / bluray_compat=0 / constrained_intra=0 / bframes=6 / b_pyramid=2 / b_adapt=2 / b_bias=0 / direct=1 / weightb=1 / open_gop=0 / weightp=2 / keyint=250 / keyint_min=25 / scenecut=40 / intra_refresh=0 / rc=crf / mbtree=0 / crf=14.0 / qcomp=0.60 / qpmin=0 / qpmax=69 / qpstep=4 / ip_ratio=1.40 / pb_ratio=1.30 / aq=1:1.00
Язык : English
Default : Да
Forced : Нет
Аудио #1
Идентификатор : 2
Формат : AC-3
Формат/Информация : Audio Coding 3
Расширение режима : CM (complete main)
Параметр Endianness формата : Big
Идентификатор кодека : A_AC3
Продолжительность : 1 ч. 55 м.
Вид битрейта : Постоянный
Битрейт : 448 Кбит/сек
Каналы : 6 каналов
Расположение каналов : Front: L C R, Side: L R, LFE
Частота : 48,0 КГц
Битовая глубина : 16 бит
Метод сжатия : С потерями
Размер потока : 370 Мбайт (3%)
Язык : Russian
Default : Да
Forced : Нет
Аудио #2
Идентификатор : 3
Формат : AC-3
Формат/Информация : Audio Coding 3
Расширение режима : CM (complete main)
Параметр Endianness формата : Big
Идентификатор кодека : A_AC3
Продолжительность : 1 ч. 55 м.
Вид битрейта : Постоянный
Битрейт : 640 Кбит/сек
Каналы : 6 каналов
Расположение каналов : Front: L C R, Side: L R, LFE
Частота : 48,0 КГц
Битовая глубина : 16 бит
Метод сжатия : С потерями
Размер потока : 528 Мбайт (5%)
Заголовок : Original
Язык : English
Default : Нет
Forced : Нет
Текст #1
Идентификатор : 4
Формат : UTF-8
Идентификатор кодека : S_TEXT/UTF8
Идентификатор кодека/Информация : UTF-8 Plain Text
Заголовок : Rus
Язык : Russian
Default : Нет
Forced : Нет
Текст #2
Идентификатор : 5
Формат : UTF-8
Идентификатор кодека : S_TEXT/UTF8
Идентификатор кодека/Информация : UTF-8 Plain Text
Заголовок : Eng
Язык : English
Default : Нет
Forced : Нет
Меню
00:00:00.000 : :Chapter 01
00:03:16.528 : :Chapter 02
00:05:44.634 : :Chapter 03
00:09:51.131 : :Chapter 04
00:12:49.349 : :Chapter 05
00:15:23.630 : :Chapter 06
00:20:27.433 : :Chapter 07
00:22:58.416 : :Chapter 08
00:28:51.354 : :Chapter 09
00:33:42.393 : :Chapter 10
00:36:23.389 : :Chapter 11
00:40:04.818 : :Chapter 12
00:42:16.157 : :Chapter 13
00:46:41.507 : :Chapter 14
00:49:32.927 : :Chapter 15
00:51:00.931 : :Chapter 16
00:55:11.141 : :Chapter 17
00:58:33.217 : :Chapter 18
01:03:05.738 : :Chapter 19
01:08:26.143 : :Chapter 20
01:10:25.345 : :Chapter 21
01:15:33.153 : :Chapter 22
01:22:24.354 : :Chapter 23
01:25:43.762 : :Chapter 24
01:29:57.515 : :Chapter 25
01:34:30.662 : :Chapter 26
01:38:06.171 : :Chapter 27
01:41:06.060 : :Chapter 28
01:44:06.823 : :Chapter 29
01:47:01.412 : :Chapter 30
01:49:05.997 : :Chapter 31
01:55:18.619 : :Chapter 32
Скриншоты:
       
Время раздачи: 24/7
Индиана Джонс:Храм Судьбы
Год выпуска: 1984
Жанр: Боевик , Приключения
Производство:США
Описание фильма:
Вторая часть невероятных похождений прославленного археолога и искателя приключений Индианы Джонса. В этот раз бесстрашный доктор Джонс совершит путешествие в сердце Гималаев вместе с ресторанной певичкой Уилли Скотт и своим верным маленьким помощником Коротышкой.
Здесь, среди величественных гор, археологу и его спутникам предстоит столкнуться с кровавым культом поклонения древней Богине Смерти — Кали. Станет ли Индиана следующим несчастным, погибшим на жутком алтаре человеческих жертвоприношений, или ему, как всегда, удастся вырваться из цепких лап страха и разобраться со злодеями.
Режиссер: Стивен Спилберг
Актеры:Харрисон Форд , Кейт Кэпшоу , Амриш Пури , Рошан Сет , Филип Стоун , Джонатан Ке Кван , Рой Чяо , Дэвид Ип , Рик Янг , Цзю Чуака
Продолжительность: 01:58:28
Качество видео: BDRip
Перевод : Многоголосый Закадровый (НТВ+)
Язык субтитров : Rus (полные) , Eng (полные)
Вид субтитров: Вшитые

Видеокодек: MPEG-4 AVC/H.264
Битрейт видео: ~12000 kb/s
Размер кадра: 1280*544
Аудиокодек: AC3 5.1 (обе дорожки)
Битрейт аудио RUS: 448 kb/s
Битрейт аудио ENG: 640 kb/s
Сэмпл: Ссылка

Рецензия, отзыв о фильме

В 2,5 раза больше кадров!
В 2,5 раза больше исходника!
В 2,5 раза плавнее! (59,94 fps)
Приятного просмотра.

MI

Общее
Уникальный идентификатор : 219193317430356565358671477869436162110 (0xA4E718ECE77494F0ADBB478DCB3F503E)
Полное имя : Y:\Фильмы\Индиана Джонс\Индиана Джонс 2 и Храм судьбы.mkv
Формат : Matroska
Версия формата : Version 4 / Version 2
Размер файла : 11,0 Гбайт
Продолжительность : 1 ч. 58 м.
Общий поток : 13,3 Мбит/сек
Название фильма : Р�ндиана Джонс Рё Храм РЎСѓРґСЊР±С‹ / Indiana Jones and the Temple of Doom (1984)
Дата кодирования : UTC 2014-02-01 17:43:23
Программа кодирования : mkvmerge v6.7.0 ('Back to the Ground') 64bit built on Jan 8 2014 15:10:52
Библиотека кодирования : libebml v1.3.0 + libmatroska v1.4.1
Видео
Идентификатор : 1
Формат : AVC
Формат/Информация : Advanced Video Codec
Профиль формата : [url=mailto:[email protected]][email protected][/url]
Параметр CABAC формата : Да
Параметр ReFrames формата : 9 кадров
Идентификатор кодека : V_MPEG4/ISO/AVC
Продолжительность : 1 ч. 58 м.
Битрейт : 12,0 Мбит/сек
Ширина : 1280 пикселей
Высота : 544 пикселя
Соотношение сторон : 2,35:1
Режим частоты кадров : Постоянный
Частота кадров : 59,880 кадров/сек
Частота кадров в оригинале : 59,940 кадров/сек
Цветовое пространство : YUV
Субдискретизация насыщенности : 4:2:0
Битовая глубина : 8 бит
Тип развёртки : Прогрессивная
Бит/(Пиксели*Кадры) : 0.287
Размер потока : 9,92 Гбайт (90%)
Библиотека кодирования : x264 core 130 r2273 b3065e6
Настройки программы : cabac=1 / ref=9 / deblock=1:0:0 / analyse=0x3:0 / me=umh / subme=9 / psy=1 / psy_rd=1.00:0.10 / mixed_ref=1 / me_range=24 / chroma_me=0 / trellis=1 / 8x8dct=1 / cqm=0 / deadzone=21,11 / fast_pskip=0 / chroma_qp_offset=-3 / threads=6 / lookahead_threads=1 / sliced_threads=0 / nr=0 / decimate=0 / interlaced=0 / bluray_compat=0 / constrained_intra=0 / bframes=6 / b_pyramid=2 / b_adapt=2 / b_bias=0 / direct=1 / weightb=1 / open_gop=0 / weightp=2 / keyint=250 / keyint_min=25 / scenecut=40 / intra_refresh=0 / rc=crf / mbtree=0 / crf=15.0 / qcomp=0.60 / qpmin=0 / qpmax=69 / qpstep=4 / ip_ratio=1.40 / pb_ratio=1.30 / aq=1:1.00
Язык : English
Default : Да
Forced : Нет
Аудио #1
Идентификатор : 2
Формат : AC-3
Формат/Информация : Audio Coding 3
Расширение режима : CM (complete main)
Параметр Endianness формата : Big
Идентификатор кодека : A_AC3
Продолжительность : 1 ч. 58 м.
Вид битрейта : Постоянный
Битрейт : 448 Кбит/сек
Каналы : 6 каналов
Расположение каналов : Front: L C R, Side: L R, LFE
Частота : 48,0 КГц
Битовая глубина : 16 бит
Метод сжатия : С потерями
Размер потока : 380 Мбайт (3%)
Язык : Russian
Default : Да
Forced : Нет
Аудио #2
Идентификатор : 3
Формат : AC-3
Формат/Информация : Audio Coding 3
Расширение режима : CM (complete main)
Параметр Endianness формата : Big
Идентификатор кодека : A_AC3
Продолжительность : 1 ч. 58 м.
Вид битрейта : Постоянный
Битрейт : 640 Кбит/сек
Каналы : 6 каналов
Расположение каналов : Front: L C R, Side: L R, LFE
Частота : 48,0 КГц
Битовая глубина : 16 бит
Метод сжатия : С потерями
Размер потока : 542 Мбайт (5%)
Заголовок : Original
Язык : English
Default : Нет
Forced : Нет
Текст #1
Идентификатор : 4
Формат : UTF-8
Идентификатор кодека : S_TEXT/UTF8
Идентификатор кодека/Информация : UTF-8 Plain Text
Заголовок : Rus
Язык : Russian
Default : Нет
Forced : Нет
Текст #2
Идентификатор : 5
Формат : UTF-8
Идентификатор кодека : S_TEXT/UTF8
Идентификатор кодека/Информация : UTF-8 Plain Text
Заголовок : Eng
Язык : English
Default : Нет
Forced : Нет
Меню
00:00:00.000 : :Chapter 01
00:02:54.048 : :Chapter 02
00:08:07.278 : :Chapter 03
00:10:52.734 : :Chapter 04
00:12:51.479 : :Chapter 05
00:16:00.542 : :Chapter 06
00:19:50.189 : :Chapter 07
00:26:28.670 : :Chapter 08
00:28:42.971 : :Chapter 09
00:31:49.032 : :Chapter 10
00:35:21.160 : :Chapter 11
00:38:57.001 : :Chapter 12
00:41:20.518 : :Chapter 13
00:46:24.323 : :Chapter 14
00:50:42.956 : :Chapter 15
00:52:06.581 : :Chapter 16
00:56:08.364 : :Chapter 17
00:59:57.218 : :Chapter 18
01:05:57.078 : :Chapter 19
01:09:52.021 : :Chapter 20
01:13:08.550 : :Chapter 21
01:17:08.290 : :Chapter 22
01:24:01.953 : :Chapter 23
01:27:33.331 : :Chapter 24
01:29:21.104 : :Chapter 25
01:35:03.447 : :Chapter 26
01:39:23.874 : :Chapter 27
01:41:51.271 : :Chapter 28
01:43:38.795 : :Chapter 29
01:49:57.966 : :Chapter 30
01:53:10.909 : :Chapter 31
01:58:27.975 : :Chapter 32
Скриншоты:
       
Время раздачи: 24/7
Индиана Джонс:Последний крестовый поход
Год выпуска: 1989
Жанр: Боевик , Приключения
Производство:США
Описание фильма:
Третья часть невероятных похождений прославленного археолога и искателя приключений Индианы Джонса. На этот раз бесстрашный Индиана разыскивает самую таинственную реликвию в истории человечества — Святой Грааль. В этом археологу помогает его отец — профессор Джонс старший.
Теперь под бдительным оком своего отца и при помощи своих верных талисманов, неизменной шляпы и хлыста, Индиане предстоит совершить много благородных подвигов и потрясающих открытий. В новых странствиях храброму археологу доведется добыть чашу, которую держал в руках Иисус Христос и получить автограф… самого Адольфа Гитлера.
Режиссер: Стивен Спилберг
Актеры:Харрисон Форд , Шон Коннери , Денхолм Эллиот , Элисон Дуди , Джон Рис-Дэвис , Джулиан Гловер , Ривер Феникс , Майкл Бирн , Кеворк Маликян , Роберт Эддисон
Продолжительность: 02:06:53
Качество видео: BDRip
Перевод : Многоголосый Закадровый (НТВ+)
Язык субтитров : Rus (полные) , Eng (полные)
Вид субтитров: Вшитые

Видеокодек: MPEG-4 AVC/H.264
Битрейт видео: ~13200 kb/s
Размер кадра: 1280*544
Аудиокодек: AC3 5.1 (обе дорожки)
Битрейт аудио RUS: 448 kb/s
Битрейт аудио ENG: 640 kb/s
Сэмпл: Ссылка

Рецензия, отзыв о фильме

В 2,5 раза больше кадров!
В 2,5 раза больше исходника!
В 2,5 раза плавнее! (59,94 fps)
Приятного просмотра.

MI

Общее
Уникальный идентификатор : 233657642259616297684547735915298136575 (0xAFC8D332F4A59D57A5D69E94DCE1A1FF)
Полное имя : Y:\Фильмы\Индиана Джонс\Индиана Джонс 3 и Последний крестовый поход.mkv
Формат : Matroska
Версия формата : Version 4 / Version 2
Размер файла : 12,9 Гбайт
Продолжительность : 2 ч. 6 м.
Общий поток : 14,6 Мбит/сек
Название фильма : Р�ндиана Джонс Рё последний крестовый РїРѕС…РѕРґ / Indiana Jones and the Last Crusade (1989)
Дата кодирования : UTC 2014-02-02 07:52:34
Программа кодирования : mkvmerge v6.7.0 ('Back to the Ground') 64bit built on Jan 8 2014 15:10:52
Библиотека кодирования : libebml v1.3.0 + libmatroska v1.4.1
Видео
Идентификатор : 1
Формат : AVC
Формат/Информация : Advanced Video Codec
Профиль формата : [url=mailto:[email protected]][email protected][/url]
Параметр CABAC формата : Да
Параметр ReFrames формата : 9 кадров
Идентификатор кодека : V_MPEG4/ISO/AVC
Продолжительность : 2 ч. 6 м.
Битрейт : 13,2 Мбит/сек
Ширина : 1280 пикселей
Высота : 544 пикселя
Соотношение сторон : 2,35:1
Режим частоты кадров : Постоянный
Частота кадров : 59,880 кадров/сек
Частота кадров в оригинале : 59,940 кадров/сек
Цветовое пространство : YUV
Субдискретизация насыщенности : 4:2:0
Битовая глубина : 8 бит
Тип развёртки : Прогрессивная
Бит/(Пиксели*Кадры) : 0.317
Размер потока : 11,7 Гбайт (91%)
Библиотека кодирования : x264 core 130 r2273 b3065e6
Настройки программы : cabac=1 / ref=9 / deblock=1:0:0 / analyse=0x3:0 / me=umh / subme=9 / psy=1 / psy_rd=1.00:0.10 / mixed_ref=1 / me_range=24 / chroma_me=0 / trellis=1 / 8x8dct=1 / cqm=0 / deadzone=21,11 / fast_pskip=0 / chroma_qp_offset=-3 / threads=6 / lookahead_threads=1 / sliced_threads=0 / nr=0 / decimate=0 / interlaced=0 / bluray_compat=0 / constrained_intra=0 / bframes=6 / b_pyramid=2 / b_adapt=2 / b_bias=0 / direct=1 / weightb=1 / open_gop=0 / weightp=2 / keyint=250 / keyint_min=25 / scenecut=40 / intra_refresh=0 / rc=crf / mbtree=0 / crf=15.0 / qcomp=0.60 / qpmin=0 / qpmax=69 / qpstep=4 / ip_ratio=1.40 / pb_ratio=1.30 / aq=1:1.00
Язык : English
Default : Да
Forced : Нет
Аудио #1
Идентификатор : 2
Формат : AC-3
Формат/Информация : Audio Coding 3
Расширение режима : CM (complete main)
Параметр Endianness формата : Big
Идентификатор кодека : A_AC3
Продолжительность : 2 ч. 6 м.
Вид битрейта : Постоянный
Битрейт : 448 Кбит/сек
Каналы : 6 каналов
Расположение каналов : Front: L C R, Side: L R, LFE
Частота : 48,0 КГц
Битовая глубина : 16 бит
Метод сжатия : С потерями
Размер потока : 407 Мбайт (3%)
Язык : Russian
Default : Да
Forced : Нет
Аудио #2
Идентификатор : 3
Формат : AC-3
Формат/Информация : Audio Coding 3
Расширение режима : CM (complete main)
Параметр Endianness формата : Big
Идентификатор кодека : A_AC3
Продолжительность : 2 ч. 6 м.
Вид битрейта : Постоянный
Битрейт : 640 Кбит/сек
Каналы : 6 каналов
Расположение каналов : Front: L C R, Side: L R, LFE
Частота : 48,0 КГц
Битовая глубина : 16 бит
Метод сжатия : С потерями
Размер потока : 581 Мбайт (4%)
Заголовок : Original
Язык : English
Default : Нет
Forced : Нет
Текст #1
Идентификатор : 4
Формат : UTF-8
Идентификатор кодека : S_TEXT/UTF8
Идентификатор кодека/Информация : UTF-8 Plain Text
Заголовок : Rus
Язык : Russian
Default : Нет
Forced : Нет
Текст #2
Идентификатор : 5
Формат : UTF-8
Идентификатор кодека : S_TEXT/UTF8
Идентификатор кодека/Информация : UTF-8 Plain Text
Заголовок : Eng
Язык : English
Default : Нет
Forced : Нет
Меню
00:00:00.000 : :Chapter 01
00:04:41.905 : :Chapter 02
00:08:11.031 : :Chapter 03
00:11:49.040 : :Chapter 04
00:14:14.435 : :Chapter 05
00:17:19.413 : :Chapter 06
00:22:14.583 : :Chapter 07
00:24:51.447 : :Chapter 08
00:26:52.152 : :Chapter 09
00:30:15.563 : :Chapter 10
00:36:31.564 : :Chapter 11
00:41:10.426 : :Chapter 12
00:44:41.387 : :Chapter 13
00:47:42.401 : :Chapter 14
00:50:23.729 : :Chapter 15
00:54:47.534 : :Chapter 16
00:56:31.137 : :Chapter 17
01:00:16.112 : :Chapter 18
01:03:08.743 : :Chapter 19
01:05:31.385 : :Chapter 20
01:07:47.313 : :Chapter 21
01:10:43.530 : :Chapter 22
01:13:36.328 : :Chapter 23
01:16:11.358 : :Chapter 24
01:18:57.107 : :Chapter 25
01:21:20.041 : :Chapter 26
01:23:28.420 : :Chapter 27
01:25:16.736 : :Chapter 28
01:26:58.046 : :Chapter 29
01:31:21.934 : :Chapter 30
01:36:57.061 : :Chapter 31
01:38:53.427 : :Chapter 32
01:41:32.544 : :Chapter 33
01:49:18.260 : :Chapter 34
01:56:05.667 : :Chapter 35
02:00:05.907 : :Chapter 36
02:06:53.105 : :Chapter 37
Скриншоты:
       
Время раздачи: 24/7
Индиана Джонс:Королевство xрустального черепа
Год выпуска: 2008
Жанр: Боевик , Приключения
Производство:США
Описание фильма:
1957 год, разгар холодной войны. Советские солдаты, возглавляемые агентом Ириной Спалько, похищают Мэрион Рэйвенвуд — давнюю возлюбленную Индианы Джонса, ставя профессора перед выбором: бездействие и смерть Мэрион или помощь советской разведке в поисках легендарного Хрустального черепа в обмен на свободу женщины.
Режиссер: Стивен Спилберг
Актеры:Харрисон Форд , Кейт Бланшетт , Карен Аллен , Шайа , ЛаБаф , Рэй Уинстон , Джон Хёрт , Джим Бродбент , Игорь Жижикин , Дмитрий Дьяченко , Илья Волох
Продолжительность: 02:02:32
Качество видео: BDRip
Перевод : Дублированный
Язык субтитров :Rus (форсированные) , Rus (полные) , Eng (полные)
Вид субтитров: Вшитые

Видеокодек: MPEG-4 AVC/H.264
Битрейт видео: ~13200 kb/s
Размер кадра: 1280*536
Аудиокодек: AC3 5.1 (обе дорожки)
Битрейт аудио RUS: 448 kb/s
Битрейт аудио ENG: 640 kb/s
Сэмпл: Ссылка

Рецензия, отзыв о фильме

В 2,5 раза больше кадров!
В 2,5 раза больше исходника!
В 2,5 раза плавнее! (59,94 fps)
Приятного просмотра.

MI

Общее
Уникальный идентификатор : 217181294217818587421558241181007124375 (0xA3639885A8EA81B1885D2021D7409797)
Полное имя : Y:\Фильмы\Индиана Джонс\Индиана Джонс 4 и Королевство xрустального черепа.mkv
Формат : Matroska
Версия формата : Version 4 / Version 2
Размер файла : 12,5 Гбайт
Продолжительность : 2 ч. 2 м.
Общий поток : 14,6 Мбит/сек
Название фильма : Р�ндиана Джонс: Р’ поисках утраченного ковчега / Raiders of the Lost Ark (1981)
Дата кодирования : UTC 2014-02-03 07:42:28
Программа кодирования : mkvmerge v6.7.0 ('Back to the Ground') 64bit built on Jan 8 2014 15:10:52
Библиотека кодирования : libebml v1.3.0 + libmatroska v1.4.1
Видео
Идентификатор : 1
Формат : AVC
Формат/Информация : Advanced Video Codec
Профиль формата : [url=mailto:[email protected]][email protected][/url]
Параметр CABAC формата : Да
Параметр ReFrames формата : 9 кадров
Идентификатор кодека : V_MPEG4/ISO/AVC
Продолжительность : 2 ч. 2 м.
Битрейт : 13,0 Мбит/сек
Ширина : 1280 пикселей
Высота : 536 пикселей
Соотношение сторон : 2,40:1
Режим частоты кадров : Постоянный
Частота кадров : 59,880 кадров/сек
Частота кадров в оригинале : 59,940 кадров/сек
Цветовое пространство : YUV
Субдискретизация насыщенности : 4:2:0
Битовая глубина : 8 бит
Тип развёртки : Прогрессивная
Бит/(Пиксели*Кадры) : 0.318
Размер потока : 11,2 Гбайт (89%)
Библиотека кодирования : x264 core 130 r2273 b3065e6
Настройки программы : cabac=1 / ref=9 / deblock=1:0:0 / analyse=0x3:0 / me=umh / subme=9 / psy=1 / psy_rd=1.00:0.10 / mixed_ref=1 / me_range=24 / chroma_me=0 / trellis=1 / 8x8dct=1 / cqm=0 / deadzone=21,11 / fast_pskip=0 / chroma_qp_offset=-3 / threads=6 / lookahead_threads=1 / sliced_threads=0 / nr=0 / decimate=0 / interlaced=0 / bluray_compat=0 / constrained_intra=0 / bframes=6 / b_pyramid=2 / b_adapt=2 / b_bias=0 / direct=1 / weightb=1 / open_gop=0 / weightp=2 / keyint=250 / keyint_min=25 / scenecut=40 / intra_refresh=0 / rc=crf / mbtree=0 / crf=13.0 / qcomp=0.60 / qpmin=0 / qpmax=69 / qpstep=4 / ip_ratio=1.40 / pb_ratio=1.30 / aq=1:1.00
Язык : English
Default : Да
Forced : Нет
Аудио #1
Идентификатор : 2
Формат : AC-3
Формат/Информация : Audio Coding 3
Расширение режима : CM (complete main)
Параметр Endianness формата : Big
Идентификатор кодека : A_AC3
Продолжительность : 2 ч. 2 м.
Вид битрейта : Постоянный
Битрейт : 640 Кбит/сек
Каналы : 6 каналов
Расположение каналов : Front: L C R, Side: L R, LFE
Частота : 48,0 КГц
Битовая глубина : 16 бит
Метод сжатия : С потерями
Размер потока : 561 Мбайт (4%)
Язык : Russian
Default : Да
Forced : Нет
Аудио #2
Идентификатор : 3
Формат : AC-3
Формат/Информация : Audio Coding 3
Расширение режима : CM (complete main)
Параметр Endianness формата : Big
Идентификатор кодека : A_AC3
Продолжительность : 2 ч. 2 м.
Вид битрейта : Постоянный
Битрейт : 640 Кбит/сек
Каналы : 6 каналов
Расположение каналов : Front: L C R, Side: L R, LFE
Частота : 48,0 КГц
Битовая глубина : 16 бит
Метод сжатия : С потерями
Размер потока : 561 Мбайт (4%)
Заголовок : Original
Язык : English
Default : Нет
Forced : Нет
Текст #1
Идентификатор : 4
Формат : UTF-8
Идентификатор кодека : S_TEXT/UTF8
Идентификатор кодека/Информация : UTF-8 Plain Text
Заголовок : Rus forced
Язык : Russian
Default : Да
Forced : Да
Текст #2
Идентификатор : 5
Формат : UTF-8
Идентификатор кодека : S_TEXT/UTF8
Идентификатор кодека/Информация : UTF-8 Plain Text
Заголовок : Rus
Язык : Russian
Default : Нет
Forced : Нет
Текст #3
Идентификатор : 6
Формат : UTF-8
Идентификатор кодека : S_TEXT/UTF8
Идентификатор кодека/Информация : UTF-8 Plain Text
Заголовок : Eng
Язык : English
Default : Нет
Forced : Нет
Меню
00:00:00.000 : :Chapter 01
00:07:21.482 : :Chapter 02
00:13:11.499 : :Chapter 03
00:21:45.304 : :Chapter 04
00:27:39.156 : :Chapter 05
00:36:58.507 : :Chapter 06
00:46:34.916 : :Chapter 07
00:55:37.458 : :Chapter 08
01:05:46.525 : :Chapter 09
01:12:08.073 : :Chapter 10
01:21:52.948 : :Chapter 11
01:29:13.930 : :Chapter 12
01:36:04.256 : :Chapter 13
01:44:23.296 : :Chapter 14
01:51:09.244 : :Chapter 15
01:55:55.030 : :Chapter 16

Рекомендации к просмотру.

Программа для воспроизведения Media Player Classic x32 или x64.ЦП минимум с 1 ядром с частотой минимум 2000гц.Оперативной памяти для стабильной работы программы необходимо 150мб.
На всякий случай обновите кодеки K-lite.
Скриншоты:
       

_________________

Создавая "Новую папку", не считайте себя Создателем - это право Вам дано Админом


Вне форума [Профиль] [ЛС]
Показать сообщения:    
Ответить на тему

Текущее время: Сегодня 18:47

Часовой пояс: GMT + 3



Вы не можете начинать темы
Вы не можете отвечать на сообщения
Вы не можете редактировать свои сообщения
Вы не можете удалять свои сообщения
Вы не можете голосовать в опросах
Вы не можете прикреплять файлы к сообщениям
Вы не можете скачивать файлы