Today is a free download without charge Download

Географ глобус пропил (Александр Велединский) [2013, Россия, драма, BDRip 720p]

Reply to topic
 
Author
Message

Omen ®

Longevity: 8 years 10 months

Posts: 181086

Торрент-статистика

Post 03-Feb-2014 14:00

[Quote]

Географ глобус пропил- Страна: Россия
Жанр: драма
Год выпуска: 2013
Продолжительность: 02:04:51-Перевод: Не требуется
Cубтитры: отсутствуют-Режиссер: Александр Велединский
В ролях: Константин Хабенский, Елена Лядова, Александр Робак, Евгения Брик, Анна Уколова, Агриппина Стеклова, Евгения Крегжде, Максим Лагашкин, Анфиса Черных, Анастасия Золотко-Описание: Молодой биолог Виктор Служкин от безденежья идет работать учителем географии в обычную пермскую школу. Он борется, а потом и дружит с учениками, конфликтует с завучем, ведет десятиклассников в поход — сплавляться по реке. Еще он пьет с друзьями вино, пытается ужиться с женой и водит в детский сад маленькую дочку. Он просто живет…-IMDB | КиноПоиск | Сэмпл-Качество видео: BDRip 720p | исх. Географ глобус пропил (2013) Blu-ray 1080p AVC DTS-HD 5.1 - HDCLUB
Формат видео: MKV-Видео: 1280x536 at 24.000 fps (True24p), [email protected], crf, ~4584 kbps avg
Аудио: 48 kHz/16-bit, DTS, 3/2 (L,C,R,l,r) + LFE ch, ~1509.00 kbps avg | Не требуется-Формат субтитров: отсутствуют
Навигация по главам: Присутствует-

MediaInfo

General
Unique ID : 247436238180301944224053459429908815739 (0xBA267C6D5DC7041BB5CA6761CC1C1F7B)
Complete name : D:\Фильмы\Geograf.globus.propil.2013.720p.BluRay.Rus.HDCLUB.mkv
Format : Matroska
Format version : Version 2
File size : 5.40 GiB
Duration : 2h 4mn
Overall bit rate : 6 197 Kbps
Movie name : Release for HDCLUB
Encoded date : UTC 2013-12-24 23:50:26
Writing application : mkvmerge v5.8.0 ('No Sleep / Pillow') built on Sep 2 2012 15:37:04
Writing library : libebml v1.2.3 + libmatroska v1.3.0
Video
ID : 1
Format : AVC
Format/Info : Advanced Video Codec
Format profile : [email protected]
Format settings, CABAC : Yes
Format settings, ReFrames : 12 frames
Codec ID : V_MPEG4/ISO/AVC
Duration : 2h 4mn
Bit rate : 4 564 Kbps
Width : 1 280 pixels
Height : 536 pixels
Display aspect ratio : 2.40:1
Frame rate mode : Constant
Frame rate : 24.000 fps
Color space : YUV
Chroma subsampling : 4:2:0
Bit depth : 8 bits
Scan type : Progressive
Bits/(Pixel*Frame) : 0.277
Stream size : 3.98 GiB (74%)
Title : Geograf.globus.propil.2013.720p.BluRay.Rus.HDCLUB
Writing library : x264 core 140 r2377+40 929f149 tMod [[email protected] X86_64]
Encoding settings : cabac=1 / ref=12 / deblock=1:-3:-3 / analyse=0x3:0x133 / me=umh / subme=11 / psy=1 / fade_compensate=0.00 / psy_rd=1.00:0.00 / mixed_ref=1 / me_range=32 / chroma_me=1 / trellis=2 / 8x8dct=1 / cqm=0 / deadzone=21,11 / fast_pskip=0 / chroma_qp_offset=-2 / threads=12 / lookahead_threads=2 / sliced_threads=0 / nr=0 / decimate=1 / interlaced=0 / bluray_compat=0 / constrained_intra=0 / fgo=0 / bframes=7 / b_pyramid=2 / b_adapt=2 / b_bias=0 / direct=1 / weightb=1 / open_gop=0 / weightp=2 / keyint=240 / keyint_min=24 / scenecut=40 / intra_refresh=0 / rc_lookahead=60 / rc=crf / mbtree=0 / crf=16.7000 / qcomp=0.70 / qpmin=0:0:0 / qpmax=69:69:69 / qpstep=4 / vbv_maxrate=50000 / vbv_bufsize=62500 / crf_max=0.0 / nal_hrd=none / filler=0 / ip_ratio=1.20 / pb_ratio=1.15 / aq=2:0.80 / aq-sensitivity=10.00 / aq-factor=1.00:1.00:1.00 / aq2=0 / aq3=0
Language : Russian
Default : Yes
Forced : No
Audio
ID : 2
Format : DTS
Format/Info : Digital Theater Systems
Mode : 16
Format settings, Endianness : Big
Codec ID : A_DTS
Duration : 2h 4mn
Bit rate mode : Constant
Bit rate : 1 509 Kbps
Channel count : 6 channels
Channel positions : Front: L C R, Side: L R, LFE
Sampling rate : 48.0 KHz
Bit depth : 16 bits
Compression mode : Lossy
Stream size : 1.32 GiB (24%)
Title : DTS 5.1 @ 1509 kbps - Original [BD RUS]
Language : Russian
Default : Yes
Forced : No
Menu
00:00:00.000 : ru:Chapter 1
00:12:18.708 : ru:Chapter 2
00:18:58.291 : ru:Chapter 3
00:27:08.541 : ru:Chapter 4
00:35:54.125 : ru:Chapter 5
00:45:32.458 : ru:Chapter 6
00:53:58.333 : ru:Chapter 7
01:02:12.333 : ru:Chapter 8
01:12:47.416 : ru:Chapter 9
01:20:55.041 : ru:Chapter 10
01:29:32.583 : ru:Chapter 11
01:36:47.916 : ru:Chapter 12
01:44:25.291 : ru:Chapter 13
01:52:39.250 : ru:Chapter 14
01:57:48.916 : ru:Chapter 15

Дополнительно

Сохранены оригинальные чаптеры как на Blu-Ray

Скриншоты

Other forum [Profile] [PM]
Display posts from previous:    
Reply to topic

The time now is: Today 14:09

All times are GMT + 3 Hours



You cannot post new topics in this forum
You cannot reply to topics in this forum
You cannot edit your posts in this forum
You cannot delete your posts in this forum
You cannot vote in polls in this forum
You cannot attach files in this forum
You cannot download files in this forum