Today is a free download without charge Download

Друзья друзей ( Артем Аксененко, Араик Оганесян) (2013, Комедия, Россия) DVD9

Reply to topic
 
Author
Message

Varius ®

Gender:

Longevity: 11 years

Posts: 2428

Location: Hell

Торрент-статистика

Post 02-Feb-2014 23:19

[Quote]

Друзья друзей (2013) DVD9- Год выпуска: 2013
Производство: Россия
Жанр: Комедия
Перевод: Не требуется (Русский)
Субтитры: Отсутствуют
Режиссер: Артем Аксененко, Араик Оганесян
Актеры: Нюша Шурочкина, Гарик Харламов, Юрий Стоянов, Николай Наумов, Александр Ильин мл, Тимур Батрутдинов, Александр Молочников, Андрей Гайдулян, Олег Верещагин, Александр Булатов, Елена Яковлева, Марина Голуб
Описание фильма:
В канун Нового года пересекаются истории промоутера, впервые оставшегося дома с пятилетним ребенком, трех музыкантов из филармонии, решившихся на ограбление сурового бизнесмена, на домашнюю вечеринку к которому их отправил тот самый промоутер, и бедного студента, пригласившего на первое свидание в дорогой ресторан дочку того самого сурового бизнесмена. В результате, каждый из героев попадет в нелепые, пикантные, опасные, но все равно очень смешные ситуации, выбраться из которых им, конечно, помогут, друзья…
Дата мировой премьеры: 1 января 2014
Дата российской премьеры: 1 января 2014, «Каропрокат»
Дата выхода DVD/Blu-Ray релиза: 4 февраля 2014, «Lizard Cinema Trade»

Продолжительность: 01:26:52
Качество видео: DVD9
Видеокодек: MPEG-2
Битрейт видео: ~6377 kbps
Размер кадра: PAL 16:9 ([email protected]х576)
Аудио 1: AC3, 6 ch, 448 kbps (Русский)
Аудио 2: AC3, 2 ch, 192 kbps (Русский)
Аудио 3: DTS, 6 ch, 755 kbps (Русский)
Доп. материалы: Отсутствуют

MediaInfo:

Общее
Полное имя : Druzya.druzey.2013.DVD9\VIDEO_TS\VTS_02_2.VOB
Формат : MPEG-PS
Размер файла : 1024 Мбайт
Продолжительность : 18 м.
Режим общего битрейта : Переменный
Общий поток : 7929 Кбит/сек
Видео
Идентификатор : 224 (0xE0)
Формат : MPEG Video
Версия формата : Version 2
Профиль формата : [email protected]
Параметр BVOP формата : Да
Параметр матрицы формата : Выборочная
Параметр GOP формата : M=3, N=12
Продолжительность : 18 м.
Вид битрейта : Переменный
Битрейт : 6377 Кбит/сек
Максимальный битрейт : 8000 Кбит/сек
Ширина : 720 пикселей
Высота : 576 пикселей
Соотношение сторон : 16:9
Частота кадров : 25,000 кадров/сек
Стандарт вещания : PAL
Цветовое пространство : YUV
Субдискретизация насыщенности : 4:2:0
Битовая глубина : 8 бит
Тип развёртки : Прогрессивная
Метод сжатия : С потерями
Бит/(Пиксели*Кадры) : 0.615
TimeCode_FirstFrame : 01:19:15:07
TimeCode_Source : Group of pictures header
Размер потока : 823 Мбайт (80%)
Аудио #1
Идентификатор : 189 (0xBD)-128 (0x80)
Формат : AC-3
Формат/Информация : Audio Coding 3
Расширение режима : CM (complete main)
Параметр Endianness формата : Big
Режим смешивания : DVD-Video
Продолжительность : 18 м.
Вид битрейта : Постоянный
Битрейт : 448 Кбит/сек
Каналы : 6 каналов
Расположение каналов : Front: L C R, Side: L R, LFE
Частота : 48,0 КГц
Битовая глубина : 16 бит
Метод сжатия : С потерями
Задержка видео : -616 мс.
Размер потока : 57,9 Мбайт (6%)
Аудио #2
Идентификатор : 189 (0xBD)-129 (0x81)
Формат : AC-3
Формат/Информация : Audio Coding 3
Расширение режима : CM (complete main)
Параметр Endianness формата : Big
Режим смешивания : DVD-Video
Продолжительность : 18 м.
Вид битрейта : Постоянный
Битрейт : 192 Кбит/сек
Каналы : 2 канала
Расположение каналов : Front: L R
Частота : 48,0 КГц
Битовая глубина : 16 бит
Метод сжатия : С потерями
Задержка видео : -520 мс.
Размер потока : 24,8 Мбайт (2%)
Аудио #3
Идентификатор : 189 (0xBD)-138 (0x8A)
Формат : DTS
Формат/Информация : Digital Theater Systems
Режим : 16
Параметр Endianness формата : Big
Режим смешивания : DVD-Video
Продолжительность : 18 м.
Вид битрейта : Постоянный
Битрейт : 755 Кбит/сек
Каналы : 6 каналов
Расположение каналов : Front: L C R, Side: L R, LFE
Частота : 48,0 КГц
Битовая глубина : 24 бит
Метод сжатия : С потерями
Задержка видео : -648 мс.
Размер потока : 97,4 Мбайт (10%)
Меню

DVDInfo:

Title: Druzya.druzey.2013.DVD9
Size: 4.81 Gb ( 5 042 958,00 KBytes ) - DVD-9
Enabled regions: 1, 2, 3, 4, 5, 6, 7, 8
VTS_01 :
Play Length: 00:00:25+{00:00:25}+{00:00:25}
Video: PAL 4:3 (720x576) VBR
Audio:
  • Russian (Dolby AC3, 6 ch)
  • English (Dolby AC3, 6 ch)
  • English (Dolby AC3, 6 ch)
    VTS_02 :
    Play Length: 01:26:52
    Video: PAL 16:9 (720x576) VBR, Auto Pan&Scan, Auto Letterboxed
    Audio:
  • Russian (Dolby AC3, 6 ch)
  • Russian (Dolby AC3, 2 ch)
  • Russian (DTS, 5 ch)
    * Menus Information *
    VIDEO_TS Menu
    Video:
  • PAL 4:3 (720x576) VBR
    English Language Unit :
  • Title Menu
    VTS_01 Menu
    Video:
  • PAL 4:3 (720x576) VBR
    Audio:
  • Not specified (Dolby AC3, 2 ch)
    English Language Unit :
  • Root Menu
  • Chapter (PTT) Menu
    VTS_02 Menu
    Video:
  • PAL 4:3 (720x576) VBR
    English Language Unit :
  • Root Menu
  • Audio Menu
  • Chapter (PTT) Menu

Меню DVD:

     
Скриншоты:
       
       

_________________

Создавая "Новую папку", не считайте себя Создателем - это право Вам дано Админом


Other forum [Profile] [PM]
Display posts from previous:    
Reply to topic

The time now is: Today 22:41

All times are GMT + 3 Hours



You cannot post new topics in this forum
You cannot reply to topics in this forum
You cannot edit your posts in this forum
You cannot delete your posts in this forum
You cannot vote in polls in this forum
You cannot attach files in this forum
You cannot download files in this forum