Today is a free download without charge Download

Пеликан / Nicostratos le pelican (Оливье Орле / Olivier Horlait) [2011, Франция, Греция, драма, комедия, DVD9] R5 «West Video»

Reply to topic
 
Author
Message

voovaz ®

Gender:

Longevity: 9 years 5 months

Posts: 87

Торрент-статистика

Post 28-Nov-2011 22:55

[Quote]

-Пеликан / Nicostratos le pelican-«Удивительная история дружбы» -Страна: Франция, Греция
Студия: Black Orange, Canal+ [fr], Ciné Cinémas, FIVE2ONE Productions, Greek Film Center, Nexus Factory, Studio 37, Uni Étoile 7, Wesh Wesh Productions
Жанр: драма, комедия
Год выпуска: 2011
Мировая премьера: 29 июня 2011
Российская премьера: 21 июля 2011, «West»
Дата выхода DVD: 24 ноября 2011, «West Video»
Продолжительность: 01:28:26
Перевод: Профессиональный (дублированный) [Лицензия]
Cубтитры: русские, украинские
Оригинальная аудиодорожка: французский-Режиссер: Оливье Орле / Olivier Horlait-В ролях: Эмир Кустурица, Тибо Ле Геллек, Джейд-Роуз Паркер, Франсуа-Ксавье Демезон, Геннадиос Пацис, Нтинос Понтикопоулос, Димитрис Сарикизоуглоу, Сократис Пацикас-Описание: После смерти жены мужчина отказывается выходить на улицу и не хочет общаться с единственным сыном. Жизнь теряет смысл, перестает для него существовать. Однажды мальчик находит птенца пеликана, которого решает оставить у себя. Он выкармливает птицу, и между ними завязываются теплые дружеские отношения. Пеликан помогает мальчику вновь обрести своего отца и возродить его к жизни.-Бонусы: Трейлер- -Качество: DVD9 R5
Формат: DVD-Video
Видео кодек: MPEG2
Аудио кодек: AC3
Видео: PAL 16:9 (720x576(0.818)) MPEG Video, 25,000 кадр/сек, 8479 Кбит/сек
Аудио #1: Russian (Dolby AC3, 6 ch) 384 Кбит/сек, 48,0 КГц
Аудио #2: Francais (Dolby AC3, 6 ch) 384 Кбит/сек, 48,0 КГц--

DVDInfo

Title:
Size: 6.10 Gb ( 6 392 878 KBytes ) - DVD-9
Enabled regions: 1, 2, 3, 4, 5, 6, 7, 8
VTS_01 :
Play Length: 00:00:23
Video: PAL 4:3 (720x576) VBR
VTS_02 :
Play Length: 00:01:56
Video: PAL 16:9 (720x576) VBR, Auto Pan&Scan
Audio:
Russian (Dolby AC3, 6 ch)
Russian (Dolby AC3, 6 ch)
Subtitles:
Not specified
Not specified
VTS_03 :
Play Length: 01:28:26
Video: PAL 16:9 (720x576) VBR, Auto Pan&Scan, Auto Letterboxed
Audio:
Russian (Dolby AC3, 6 ch)
Francais (Dolby AC3, 6 ch)
Subtitles:
Russian
Ukrainian

MediaInfo

Общее
Полное имя : G:\Новинки 2011\Pelikan.2011.DVD9\VIDEO_TS\VTS_03_1.VOB
Формат : MPEG-PS
Размер файла : 1024 Мбайт
Продолжительность : 15 м.
Общий поток : 9435 Кбит/сек
Видео
Идентификатор : 224 (0xE0)
Формат : MPEG Video
Версия формата : Version 2
Профиль формата : [email protected]
Параметр BVOP формата : Да
Параметр матрицы формата : Выборочная
Продолжительность : 15 м.
Битрейт : 8479 Кбит/сек
Максимальный битрейт : 8500 Кбит/сек
Ширина : 720 пикселей
Высота : 576 пикселей
Соотношение сторон : 16:9
Частота кадров : 25,000 кадров/сек
Стандарт вещания : PAL
Цветовое пространство : YUV
Субдискретизация насыщенности : 4:2:0
Битовая глубина : 8 бит
Тип развёртки : Чересстрочная
Порядок развёртки : Верхнее поле первое
Метод сжатия : С потерями
Бит/(Пиксели*Кадры) : 0.818
Размер потока : 920 Мбайт (90%)
Аудио #1
Идентификатор : 189 (0xBD)-128 (0x80)
Формат : AC-3
Формат/Информация : Audio Coding 3
Расширение режима : CM (complete main)
Режим смешивания : DVD-Video
Продолжительность : 15 м.
Вид битрейта : Постоянный
Битрейт : 384 Кбит/сек
Каналы : 6 каналов
Расположение каналов : Front: L C R, Side: L R, LFE
Частота : 48,0 КГц
Битовая глубина : 16 бит
Метод сжатия : С потерями
Размер потока : 41,7 Мбайт (4%)
Аудио #2
Идентификатор : 189 (0xBD)-129 (0x81)
Формат : AC-3
Формат/Информация : Audio Coding 3
Расширение режима : CM (complete main)
Режим смешивания : DVD-Video
Продолжительность : 15 м.
Вид битрейта : Постоянный
Битрейт : 384 Кбит/сек
Каналы : 6 каналов
Расположение каналов : Front: L C R, Side: L R, LFE
Частота : 48,0 КГц
Битовая глубина : 16 бит
Метод сжатия : С потерями
Размер потока : 41,7 Мбайт (4%)
Текст #1
Идентификатор : 189 (0xBD)-32 (0x20)
Формат : RLE
Формат/Информация : Run-length encoding
Режим смешивания : DVD-Video
Текст #2
Идентификатор : 189 (0xBD)-33 (0x21)
Формат : RLE
Формат/Информация : Run-length encoding
Режим смешивания : DVD-Video

Скриншоты меню

     

Скриншоты фильма

               
-- --
Other forum [Profile] [PM]
Display posts from previous:    
Reply to topic

The time now is: Today 04:40

All times are GMT + 3 Hours



You cannot post new topics in this forum
You cannot reply to topics in this forum
You cannot edit your posts in this forum
You cannot delete your posts in this forum
You cannot vote in polls in this forum
You cannot attach files in this forum
You cannot download files in this forum