Today is a free download without charge Download

Банальная история (Иосиф Боярский) [1962 г., мультфильм, философский, DVB]

Reply to topic
 
Author
Message

Omen ®

Longevity: 7 years 11 months

Posts: 181087

Торрент-статистика

Post 01-Feb-2014 23:02

[Quote]

Банальная история
Жанр: мультфильм, философский
Год выпуска: 1962
Продолжительность: 00:09:12
Режиссёр: Иосиф Боярский
Описание: по мотивам сказки - сценария Аркадия Георгиевича Снесарева. Приключения изящного мужского ботинка и его любви к туфельке - житейские итории, разыграные обычными вещами ...
Доп. информация: огромная благодарность [/url] за предоставленный исходник

Трансляция спутникового канала:

Качество видео: DVB
Формат видео: MPEG-PS
Видео: MPEG2 Video, [email protected] (4:3), анаморф, 25 fps, 2900 kbps
Аудио: MPEG Audio, 2 сh, 48 kHz, 192 kbps

MediaInfo

D:\Банальная история. (1962)_DVB by RG multfilms .mpg
General
Complete name : D:\Банальная история. (1962)_DVB by RG multfilms .mpg
Format : MPEG-PS
File size : 209 MiB
Duration : 9mn 12s
Overall bit rate mode : Variable
Overall bit rate : 3 179 Kbps
Video #224
ID : 224 (0xE0)
Format : MPEG Video
Format version : Version 2
Format profile : [email protected]
Format settings, BVOP : Yes
Format settings, Matrix : Custom
Format settings, GOP : Variable
Duration : 9mn 12s
Bit rate mode : Variable
Bit rate : 2 923 Kbps
Maximum bit rate : 15.0 Mbps
Width : 544 pixels
Height : 576 pixels
Display aspect ratio : 4:3
Frame rate : 25.000 fps
Color space : YUV
Chroma subsampling : 4:2:0
Bit depth : 8 bits
Scan type : Interlaced
Scan order : Top Field First
Compression mode : Lossy
Bits/(Pixel*Frame) : 0.373
Time code of first frame : 00:00:00:00
Time code source : Group of pictures header
Stream size : 192 MiB (92%)
Audio #192
ID : 192 (0xC0)
Format : MPEG Audio
Format version : Version 1
Format profile : Layer 2
Duration : 9mn 12s
Bit rate mode : Constant
Bit rate : 192 Kbps
Channel(s) : 2 channels
Sampling rate : 48.0 KHz
Compression mode : Lossy
Stream size : 12.6 MiB (6%)

Скриншоты


Other forum [Profile] [PM]
Display posts from previous:    
Reply to topic

The time now is: Today 12:08

All times are GMT + 3 Hours



You cannot post new topics in this forum
You cannot reply to topics in this forum
You cannot edit your posts in this forum
You cannot delete your posts in this forum
You cannot vote in polls in this forum
You cannot attach files in this forum
You cannot download files in this forum