Сегодня идет свободное скачивание без начисления Download

Форсаж / The Fast and the Furious (Роб Коэн,Джон Синглтон,Джастин Лин,)[2001-2013.,Боевик, Триллер, Криминал] BDRip [1080p] [Коллекция 1-6]

Ответить на тему
 
Автор
Сообщение

sashau ®

Пол:

Стаж: 6 лет 9 месяцев

Сообщений: 3535

Торрент-статистика

Пост 31-Янв-2014 18:21

[Цитировать]

Форсаж / The Fast and the Furious Название: Форсаж: Коллекция
Оригинальное название: Fast & Furious: The Collection
Год выхода: 2001/2003/2006/2009/2011/2013
Жанр: боевик, криминал, триллер
Режиссер: Роб Коэн, Джон Синглтон, Джастин Лин
Производство: США, Германия / Original Film, Universal Pictures
Продолжительность: 01:46:57 | 01:47:42 | 01:44:14 | 01:46:52 | 02:11:35 | 02:11:03
-
-

Форсаж / The Fast and the Furious (2001)

Форсаж / The Fast and the Furious (2001) BDRip
«Если у тебя то, что нужно... ты можешь получить всё»
Год выпуска: 2001
Жанр: Боевик, Криминал, Триллер
Производство: США, Германия-Описание фильма:
Его зовут Брайан, и он — фанатик турбин и нитроускорителей. Его цель — быть принятым в автобанду легендарного Доминика Торетто, чемпиона опасных и незаконных уличных гонок. Но это лишь часть правды… Брайан также полицейский, имеющий задание войти в доверие к Торетто, подозреваемому в причастности к дерзким грабежам трейлеров, совершенным прямо «с колес».
Но чем больше доверяет нахальному новичку харизматичный Доминик, тем больше проникается герой идеалами «ангелов дорог». И тем меньше ему хочется выполнять свою миссию. И вот, наступает момент, когда Брайану придется выбирать между дружбой и долгом. И выбирать на скорости в 200 километров в час…-Режиссер: Роб Коэн-Актеры: Пол Уокер, Вин Дизель, Мишель Родригез, Джордана Брюстер, Рик Йун, Чад Линдберг, Джонни Стронг, Мэтт Шульц, Тед Ливайн, Ja Rule, Вито Руджинис, Том Бэрри, Стэнтон Рутледж, Noel Gugliemi, Р.Дж. Де Вера, Бо Холден, Регги Ли, Дэвид Дуглас, Питер Нэви Туясосопо, Нил Х. Мориц, Doria Anselmo-Продолжительность: 01:46:57
Качество видео: BDRip 1080р
Перевод: Профессиональный (многоголосый закадровый), Профессиональный (полное дублирование), Профессиональный (двухголосый закадровый), Авторский (одноголосый закадровый)
Язык субтитров: Russian (captions), Russian, Russian (Doctor_Joker), Russian (Д. Нурмухаметов), English
Вид субтитров: Вшитые (отключаемые*)- -Видеокодек: MPEG-4 AVC/H.264
Битрейт видео: 16200 kbps
Размер кадра: 1920x816
Аудиокодек: AC3, DTS
Аудио#1: Russian: 48 kHz, DTS, 5.1, 768 kbps |MVO, Blu-ray CEE|
Аудио#2: Russian: 48 kHz, AC3, 2.0, 192 kbps |Дубляж, Ист-Вест|
Аудио#3: Russian: 48 kHz, AC3, 5.1, 384 kbps |Многоголосый закадровый|
Аудио#4: Russian: 48 kHz, AC3, 2.0, 192 kbps |Двухголосый закадровый, Премьер Видео Фильм|
Аудио#5: Russian: 48 kHz, DTS, 5.1, 1510 kbps |Двухголосый закадровый, П. Гланц и И. Королёва|
Аудио#6: Russian: 48 kHz, DTS, 5.1, 1509 kbps |Одноголосый закадровый, А. Гаврилов|
Аудио#7: Russian: 48 kHz, DTS, 5.1, 755 kbps |Одноголосый закадровый, Ю. Живов|
Аудио#8: Russian: 48 kHz, DTS, 5.1, 755 kbps |Одноголосый закадровый, С. Визгунов|
Аудио#9: Russian: 48 kHz, AC3, 5.1, 448 kbps |Одноголосый закадровый, Doctor_Joker|
Аудио#10: Ukrainian: 48 kHz, AC3, 2.0, 192 kbps |Многоголосый закадровый, Так Треба Продакшн / Украина|
Аудио#11: Ukrainian: 48 kHz, AC3, 2.0, 192 kbps |Многоголосый закадровый, ТВ+ / ICTV|
Аудио#12: English: 48 kHz, DTS, 5.1, ~1509.00 kbps avg-

minfo

Общее
Уникальный идентификатор : 231358361130033200505513206372153548086 (0xAE0DFFE31055736DAD0651C4E6F1DD36)
Полное имя : A:\Фильмы\Fast.&.Furious.Collection.1080p.BluRay.Rus.Ukr.Eng.HDCLUB\The.Fast.and.the.Furious.2001.1080p.BluRay.9xRus.2xUkr.Eng.HDCLUB.mkv
Формат : Matroska
Версия формата : Version 4 / Version 2
Размер файла : 18,7 Гбайт
Продолжительность : 1 ч. 46 м.
Общий поток : 25,1 Мбит/сек
Название фильма : The Fast and the Furious (2001) - Release for HDCLUB
Дата кодирования : UTC 2014-01-21 07:59:47
Программа кодирования : mkvmerge v6.6.0 ('The Edge Of The In Between') built on Dec 1 2013 17:55:00
Библиотека кодирования : libebml v1.3.0 + libmatroska v1.4.1
Attachment : Yes
Видео
Идентификатор : 1
Формат : AVC
Формат/Информация : Advanced Video Codec
Профиль формата : [url=mailto:[email protected]][email protected][/url]
Параметр CABAC формата : Да
Параметр ReFrames формата : 5 кадров
Идентификатор кодека : V_MPEG4/ISO/AVC
Продолжительность : 1 ч. 46 м.
Битрейт : 16,2 Мбит/сек
Ширина : 1920 пикселей
Высота : 816 пикселей
Соотношение сторон : 2,35:1
Режим частоты кадров : Постоянный
Частота кадров : 23,976 кадра/сек
Цветовое пространство : YUV
Субдискретизация насыщенности : 4:2:0
Битовая глубина : 8 бит
Тип развёртки : Прогрессивная
Бит/(Пиксели*Кадры) : 0.430
Размер потока : 12,1 Гбайт (64%)
Заголовок : Release for HDCLUB
Библиотека кодирования : x264 core 132 r2309kMod 3b1f1f7
Настройки программы : cabac=1 / ref=5 / deblock=1:-3:-3 / analyse=0x3:0x133 / me=umh / subme=10 / psy=1 / fade_compensate=0.00 / psy_rd=1.13:0.00 / mixed_ref=1 / me_range=48 / chroma_me=1 / trellis=2 / 8x8dct=1 / cqm=0 / deadzone=21,11 / fast_pskip=0 / chroma_qp_offset=-2 / threads=12 / lookahead_threads=2 / sliced_threads=0 / nr=0 / decimate=1 / interlaced=0 / bluray_compat=0 / constrained_intra=0 / bframes=7 / b_pyramid=2 / b_adapt=2 / b_bias=0 / direct=3 / weightb=1 / open_gop=0 / weightp=2 / keyint=250 / keyint_min=23 / scenecut=40 / intra_refresh=0 / rc=crf / mbtree=0 / crf=17.0000 / qcomp=0.60 / qpmin=0 / qpmax=69 / qpstep=4 / ip_ratio=1.30 / pb_ratio=1.20 / aq=1:0.80
Язык : English
Default : Да
Forced : Нет
Аудио #1
Идентификатор : 2
Формат : DTS
Формат/Информация : Digital Theater Systems
Режим : 16
Параметр Endianness формата : Big
Идентификатор кодека : A_DTS
Продолжительность : 1 ч. 46 м.
Вид битрейта : Постоянный
Битрейт : 768 Кбит/сек
Каналы : 6 каналов
Расположение каналов : Front: L C R, Side: L R, LFE
Частота : 48,0 КГц
Битовая глубина : 24 бит
Метод сжатия : С потерями
Размер потока : 588 Мбайт (3%)
Заголовок : MVO, Blu-ray CEE
Язык : Russian
Default : Да
Forced : Нет
Аудио #2
Идентификатор : 3
Формат : AC-3
Формат/Информация : Audio Coding 3
Расширение режима : CM (complete main)
Параметр Endianness формата : Big
Идентификатор кодека : A_AC3
Продолжительность : 1 ч. 46 м.
Вид битрейта : Постоянный
Битрейт : 192 Кбит/сек
Каналы : 2 канала
Расположение каналов : Front: L R
Частота : 48,0 КГц
Битовая глубина : 16 бит
Метод сжатия : С потерями
Размер потока : 147 Мбайт (1%)
Заголовок : Dub, Ист-Вест
Язык : Russian
Default : Нет
Forced : Нет
Аудио #3
Идентификатор : 4
Формат : AC-3
Формат/Информация : Audio Coding 3
Расширение режима : CM (complete main)
Параметр Endianness формата : Big
Идентификатор кодека : A_AC3
Продолжительность : 1 ч. 46 м.
Вид битрейта : Постоянный
Битрейт : 384 Кбит/сек
Каналы : 6 каналов
Расположение каналов : Front: L C R, Side: L R, LFE
Частота : 48,0 КГц
Битовая глубина : 16 бит
Метод сжатия : С потерями
Размер потока : 294 Мбайт (2%)
Заголовок : MVO
Язык : Russian
Default : Нет
Forced : Нет
Аудио #4
Идентификатор : 5
Формат : AC-3
Формат/Информация : Audio Coding 3
Расширение режима : CM (complete main)
Параметр Endianness формата : Big
Идентификатор кодека : A_AC3
Продолжительность : 1 ч. 46 м.
Вид битрейта : Постоянный
Битрейт : 192 Кбит/сек
Каналы : 2 канала
Расположение каналов : Front: L R
Частота : 48,0 КГц
Битовая глубина : 16 бит
Метод сжатия : С потерями
Размер потока : 147 Мбайт (1%)
Заголовок : DVO, Премьер Видео Фильм
Язык : Russian
Default : Нет
Forced : Нет
Аудио #5
Идентификатор : 6
Формат : DTS
Формат/Информация : Digital Theater Systems
Режим : 16
Параметр Endianness формата : Big
Идентификатор кодека : A_DTS
Продолжительность : 1 ч. 46 м.
Вид битрейта : Постоянный
Битрейт : 1510 Кбит/сек
Каналы : 6 каналов
Расположение каналов : Front: L C R, Side: L R, LFE
Частота : 48,0 КГц
Битовая глубина : 24 бит
Метод сжатия : С потерями
Размер потока : 1,13 Гбайт (6%)
Заголовок : DVO, Гланц и Королёва
Язык : Russian
Default : Нет
Forced : Нет
Аудио #6
Идентификатор : 7
Формат : DTS
Формат/Информация : Digital Theater Systems
Режим : 16
Параметр Endianness формата : Big
Идентификатор кодека : A_DTS
Продолжительность : 1 ч. 46 м.
Вид битрейта : Постоянный
Битрейт : 1509 Кбит/сек
Каналы : 6 каналов
Расположение каналов : Front: L C R, Side: L R, LFE
Частота : 48,0 КГц
Битовая глубина : 24 бит
Метод сжатия : С потерями
Размер потока : 1,13 Гбайт (6%)
Заголовок : VO, Гаврилов
Язык : Russian
Default : Нет
Forced : Нет
Аудио #7
Идентификатор : 8
Формат : DTS
Формат/Информация : Digital Theater Systems
Режим : 16
Параметр Endianness формата : Big
Идентификатор кодека : A_DTS
Продолжительность : 1 ч. 46 м.
Вид битрейта : Постоянный
Битрейт : 755 Кбит/сек
Каналы : 6 каналов
Расположение каналов : Front: L C R, Side: L R, LFE
Частота : 48,0 КГц
Битовая глубина : 24 бит
Метод сжатия : С потерями
Размер потока : 577 Мбайт (3%)
Заголовок : VO, Живов
Язык : Russian
Default : Нет
Forced : Нет
Аудио #8
Идентификатор : 9
Формат : DTS
Формат/Информация : Digital Theater Systems
Режим : 16
Параметр Endianness формата : Big
Идентификатор кодека : A_DTS
Продолжительность : 1 ч. 46 м.
Вид битрейта : Постоянный
Битрейт : 755 Кбит/сек
Каналы : 6 каналов
Расположение каналов : Front: L C R, Side: L R, LFE
Частота : 48,0 КГц
Битовая глубина : 24 бит
Метод сжатия : С потерями
Размер потока : 577 Мбайт (3%)
Заголовок : VO, Визгунов
Язык : Russian
Default : Нет
Forced : Нет
Аудио #9
Идентификатор : 10
Формат : AC-3
Формат/Информация : Audio Coding 3
Расширение режима : CM (complete main)
Параметр Endianness формата : Big
Идентификатор кодека : A_AC3
Продолжительность : 1 ч. 46 м.
Вид битрейта : Постоянный
Битрейт : 448 Кбит/сек
Каналы : 6 каналов
Расположение каналов : Front: L C R, Side: L R, LFE
Частота : 48,0 КГц
Битовая глубина : 16 бит
Метод сжатия : С потерями
Размер потока : 343 Мбайт (2%)
Заголовок : VO, Doctor_Joker
Язык : Russian
Default : Нет
Forced : Нет
Аудио #10
Идентификатор : 11
Формат : AC-3
Формат/Информация : Audio Coding 3
Расширение режима : CM (complete main)
Параметр Endianness формата : Big
Идентификатор кодека : A_AC3
Продолжительность : 1 ч. 46 м.
Вид битрейта : Постоянный
Битрейт : 192 Кбит/сек
Каналы : 2 канала
Расположение каналов : Front: L R
Частота : 48,0 КГц
Битовая глубина : 16 бит
Метод сжатия : С потерями
Размер потока : 147 Мбайт (1%)
Заголовок : MVO, Так Треба Продакшн / Украина
Язык : Ukrainian
Default : Нет
Forced : Нет
Аудио #11
Идентификатор : 12
Формат : AC-3
Формат/Информация : Audio Coding 3
Расширение режима : CM (complete main)
Параметр Endianness формата : Big
Идентификатор кодека : A_AC3
Продолжительность : 1 ч. 46 м.
Вид битрейта : Постоянный
Битрейт : 192 Кбит/сек
Каналы : 2 канала
Расположение каналов : Front: L R
Частота : 48,0 КГц
Битовая глубина : 16 бит
Метод сжатия : С потерями
Размер потока : 147 Мбайт (1%)
Заголовок : MVO, ТВ+ / ICTV
Язык : Ukrainian
Default : Нет
Forced : Нет
Аудио #12
Идентификатор : 13
Формат : DTS
Формат/Информация : Digital Theater Systems
Режим : 16
Параметр Endianness формата : Big
Идентификатор кодека : A_DTS
Продолжительность : 1 ч. 46 м.
Вид битрейта : Постоянный
Битрейт : 1509 Кбит/сек
Каналы : 6 каналов
Расположение каналов : Front: L C R, Side: L R, LFE
Частота : 48,0 КГц
Битовая глубина : 24 бит
Метод сжатия : С потерями
Размер потока : 1,13 Гбайт (6%)
Язык : English
Default : Нет
Forced : Нет
Текст #1
Идентификатор : 14
Формат : UTF-8
Идентификатор кодека : S_TEXT/UTF8
Идентификатор кодека/Информация : UTF-8 Plain Text
Заголовок : captions
Язык : Russian
Default : Да
Forced : Нет
Текст #2
Идентификатор : 15
Формат : UTF-8
Идентификатор кодека : S_TEXT/UTF8
Идентификатор кодека/Информация : UTF-8 Plain Text
Язык : Russian
Default : Нет
Forced : Нет
Текст #3
Идентификатор : 16
Формат : UTF-8
Идентификатор кодека : S_TEXT/UTF8
Идентификатор кодека/Информация : UTF-8 Plain Text
Заголовок : Doctor_Joker
Язык : Russian
Default : Нет
Forced : Нет
Текст #4
Идентификатор : 17
Формат : UTF-8
Идентификатор кодека : S_TEXT/UTF8
Идентификатор кодека/Информация : UTF-8 Plain Text
Заголовок : Данис Нурмухаметов
Язык : Russian
Default : Нет
Forced : Нет
Текст #5
Идентификатор : 18
Формат : UTF-8
Идентификатор кодека : S_TEXT/UTF8
Идентификатор кодека/Информация : UTF-8 Plain Text
Язык : English
Default : Нет
Forced : Нет
Меню
00:00:00.000 : en:The Hijackers
00:02:56.885 : en:Enter the Eclipse
00:10:20.244 : en:The Snowmans's Bet
00:15:07.531 : en:NOS Fest
00:26:40.473 : en:Big Trouble in Little Saigon
00:29:59.214 : en:Right to Party
00:34:42.872 : en:A Double Life
00:38:08.494 : en:A Ten-Second Car
00:44:56.402 : en:Undercover Blues
00:55:26.489 : en:A Quarter Mile at a Time
00:58:40.433 : en:Undercover Love
01:01:45.743 : en:The Takedown of Johnny Tran
01:09:25.119 : en: Wars
01:12:02.026 : en:Jesse Throws Pink
01:15:23.685 : en:Mia's Choice
01:20:44.172 : en:Hijackers' Hell
01:29:59.811 : en:Fury in Echo Park
01:34:58.317 : en: Against the Train
01:38:05.462 : en:Honor
01:39:57.992 : en:End Titles
-Скриншоты:-        

-
-

Двойной форсаж / 2 Fast 2 Furious (2003)

Двойной форсаж / 2 Fast 2 Furious (2003) BDRip
«Какую скорость ты выдержишь?»
Год выпуска: 2003
Жанр: Боевик, Триллер, Криминал
Производство: США, Германия-Описание фильма:
Бывший полицейский Брайан О`Коннер вместе с напарником Романом Пирсом собираются перевезти крупную сумму «грязных» денег известного мафиози Картера Верона в качестве его подручных. Но на самом деле эта работа является только прикрытием для Брайана, который вместе с тайным агентом Моникой Фуэнтес должны уличить изворотливого преступника…-Режиссер: Джон Синглтон-Актеры: Пол Уокер, Вин Дизель, Дуэйн Джонсон, Мишель Родригес, Джордана Брюстер, Рик Юн, Чад Линдберг, Джонни Стронг, Мэтт Шульце, Тед Левайн, Джа Рул, Тайриз Гибсон, Ева Мендес, Коул Хаузер, Лудакрис, Том Бэрри, Джеймс Римар, Девон Аоки, Амори Ноласко, Майкл Или, Лукас Блэк, Бау Вау, Брайан Ти, Санг Кенг, Брэндон Брендел, Дэниэл Буко, Дэвид Томас, Эмбер Стивенс, Ашика Гонья, Кристиан Салазар-Продолжительность: 01:47:42
Качество видео: BDRip 1080p
Перевод: Профессиональный (многоголосый закадровый), Профессиональный (полное дублирование), Профессиональный (двухголосый закадровый), Авторский (одноголосый закадровый)
Язык субтитров: Russian (captions), Russian, Russian (Radegast), English
Вид субтитров: Вшитые (отключаемые*)- -Видеокодек: MPEG-4 AVC/H.264
Битрейт видео: 17000 kbps avg
Размер кадра: 1920x816
Аудиокодек: AC3, DTS
Аудио#1: Russian: 48 kHz, DTS, 5.1, 768 kbps |Дубляж, Blu-ray CEE|
Аудио#2: Russian: 48 kHz, DTS, 5.1, 1510 kbps |Двухголосый закадровый|
Аудио#3: Russian: 48 kHz, AC3, 5.1, 448 kbps |Многоголосый закадровый|
Аудио#4: Russian: 48 kHz, AC3, 5.1, 448 kbps |Многоголосый закадровый|
Аудио#5: Russian: 48 kHz, DTS, 5.1, 1509 kbps |Одноголосый закадровый, А. Гаврилов|
Аудио#6: Ukrainian: 48 kHz, AC3, 2.0, 192 kbps |Многоголосый закадровый, ICTV|
Аудио#7: English: 48 kHz, DTS, 5.1, ~1509.00 kbps avg-

minfo

Общее
Уникальный идентификатор : 248236854414903376168389152918606540740 (0xBAC0ADDAED6486EBB84D99E4F0796FC4)
Полное имя : A:\Фильмы\Fast.&.Furious.Collection.1080p.BluRay.Rus.Ukr.Eng.HDCLUB\2.Fast.2.Furious.2003.1080p.BluRay.5xRus.Ukr.Eng.HDCLUB.mkv
Формат : Matroska
Версия формата : Version 4 / Version 2
Размер файла : 17,9 Гбайт
Продолжительность : 1 ч. 47 м.
Общий поток : 23,8 Мбит/сек
Название фильма : 2 Fast 2 Furious (2003) - Release for HDCLUB
Дата кодирования : UTC 2014-01-24 06:39:47
Программа кодирования : mkvmerge v6.6.0 ('The Edge Of The In Between') built on Dec 1 2013 17:55:00
Библиотека кодирования : libebml v1.3.0 + libmatroska v1.4.1
Attachment : Yes
Видео
Идентификатор : 1
Формат : AVC
Формат/Информация : Advanced Video Codec
Профиль формата : [url=mailto:[email protected]][email protected][/url]
Параметр CABAC формата : Да
Параметр ReFrames формата : 5 кадров
Идентификатор кодека : V_MPEG4/ISO/AVC
Продолжительность : 1 ч. 47 м.
Битрейт : 17,0 Мбит/сек
Ширина : 1920 пикселей
Высота : 816 пикселей
Соотношение сторон : 2,35:1
Режим частоты кадров : Постоянный
Частота кадров : 23,976 кадра/сек
Цветовое пространство : YUV
Субдискретизация насыщенности : 4:2:0
Битовая глубина : 8 бит
Тип развёртки : Прогрессивная
Бит/(Пиксели*Кадры) : 0.452
Размер потока : 12,8 Гбайт (71%)
Заголовок : Release for HDCLUB
Библиотека кодирования : x264 core 132 r2309kMod 3b1f1f7
Настройки программы : cabac=1 / ref=5 / deblock=1:-3:-3 / analyse=0x3:0x133 / me=umh / subme=10 / psy=1 / fade_compensate=0.00 / psy_rd=1.13:0.00 / mixed_ref=1 / me_range=48 / chroma_me=1 / trellis=2 / 8x8dct=1 / cqm=0 / deadzone=21,11 / fast_pskip=0 / chroma_qp_offset=-2 / threads=12 / lookahead_threads=2 / sliced_threads=0 / nr=0 / decimate=1 / interlaced=0 / bluray_compat=0 / constrained_intra=0 / bframes=7 / b_pyramid=2 / b_adapt=2 / b_bias=0 / direct=3 / weightb=1 / open_gop=0 / weightp=2 / keyint=250 / keyint_min=23 / scenecut=40 / intra_refresh=0 / rc=crf / mbtree=0 / crf=17.7500 / qcomp=0.60 / qpmin=0 / qpmax=69 / qpstep=4 / ip_ratio=1.30 / pb_ratio=1.20 / aq=1:0.80
Язык : English
Default : Да
Forced : Нет
Аудио #1
Идентификатор : 2
Формат : DTS
Формат/Информация : Digital Theater Systems
Режим : 16
Параметр Endianness формата : Big
Идентификатор кодека : A_DTS
Продолжительность : 1 ч. 47 м.
Вид битрейта : Постоянный
Битрейт : 768 Кбит/сек
Каналы : 6 каналов
Расположение каналов : Front: L C R, Side: L R, LFE
Частота : 48,0 КГц
Битовая глубина : 24 бит
Метод сжатия : С потерями
Размер потока : 592 Мбайт (3%)
Заголовок : Dub, Blu-ray CEE
Язык : Russian
Default : Да
Forced : Нет
Аудио #2
Идентификатор : 3
Формат : DTS
Формат/Информация : Digital Theater Systems
Режим : 16
Параметр Endianness формата : Big
Идентификатор кодека : A_DTS
Продолжительность : 1 ч. 47 м.
Вид битрейта : Постоянный
Битрейт : 1510 Кбит/сек
Каналы : 6 каналов
Расположение каналов : Front: L C R, Side: L R, LFE
Частота : 48,0 КГц
Битовая глубина : 24 бит
Метод сжатия : С потерями
Размер потока : 1,14 Гбайт (6%)
Заголовок : DVO
Язык : Russian
Default : Нет
Forced : Нет
Аудио #3
Идентификатор : 4
Формат : AC-3
Формат/Информация : Audio Coding 3
Расширение режима : CM (complete main)
Параметр Endianness формата : Big
Идентификатор кодека : A_AC3
Продолжительность : 1 ч. 47 м.
Вид битрейта : Постоянный
Битрейт : 448 Кбит/сек
Каналы : 6 каналов
Расположение каналов : Front: L C R, Side: L R, LFE
Частота : 48,0 КГц
Битовая глубина : 16 бит
Метод сжатия : С потерями
Размер потока : 345 Мбайт (2%)
Заголовок : MVO
Язык : Russian
Default : Нет
Forced : Нет
Аудио #4
Идентификатор : 5
Формат : AC-3
Формат/Информация : Audio Coding 3
Расширение режима : CM (complete main)
Параметр Endianness формата : Big
Идентификатор кодека : A_AC3
Продолжительность : 1 ч. 47 м.
Вид битрейта : Постоянный
Битрейт : 448 Кбит/сек
Каналы : 6 каналов
Расположение каналов : Front: L C R, Side: L R, LFE
Частота : 48,0 КГц
Битовая глубина : 16 бит
Метод сжатия : С потерями
Размер потока : 345 Мбайт (2%)
Заголовок : MVO
Язык : Russian
Default : Нет
Forced : Нет
Аудио #5
Идентификатор : 6
Формат : DTS
Формат/Информация : Digital Theater Systems
Режим : 16
Параметр Endianness формата : Big
Идентификатор кодека : A_DTS
Продолжительность : 1 ч. 47 м.
Вид битрейта : Постоянный
Битрейт : 1509 Кбит/сек
Каналы : 6 каналов
Расположение каналов : Front: L C R, Side: L R, LFE
Частота : 48,0 КГц
Битовая глубина : 24 бит
Метод сжатия : С потерями
Размер потока : 1,14 Гбайт (6%)
Заголовок : VO, Гаврилов
Язык : Russian
Default : Нет
Forced : Нет
Аудио #6
Идентификатор : 7
Формат : AC-3
Формат/Информация : Audio Coding 3
Расширение режима : CM (complete main)
Параметр Endianness формата : Big
Идентификатор кодека : A_AC3
Продолжительность : 1 ч. 47 м.
Вид битрейта : Постоянный
Битрейт : 192 Кбит/сек
Каналы : 2 канала
Расположение каналов : Front: L R
Частота : 48,0 КГц
Битовая глубина : 16 бит
Метод сжатия : С потерями
Размер потока : 148 Мбайт (1%)
Заголовок : MVO, ICTV
Язык : Ukrainian
Default : Нет
Forced : Нет
Аудио #7
Идентификатор : 8
Формат : DTS
Формат/Информация : Digital Theater Systems
Режим : 16
Параметр Endianness формата : Big
Идентификатор кодека : A_DTS
Продолжительность : 1 ч. 47 м.
Вид битрейта : Постоянный
Битрейт : 1509 Кбит/сек
Каналы : 6 каналов
Расположение каналов : Front: L C R, Side: L R, LFE
Частота : 48,0 КГц
Битовая глубина : 24 бит
Метод сжатия : С потерями
Размер потока : 1,14 Гбайт (6%)
Язык : English
Default : Нет
Forced : Нет
Текст #1
Идентификатор : 9
Формат : UTF-8
Идентификатор кодека : S_TEXT/UTF8
Идентификатор кодека/Информация : UTF-8 Plain Text
Заголовок : captions
Язык : Russian
Default : Да
Forced : Нет
Текст #2
Идентификатор : 10
Формат : UTF-8
Идентификатор кодека : S_TEXT/UTF8
Идентификатор кодека/Информация : UTF-8 Plain Text
Язык : Russian
Default : Нет
Forced : Нет
Текст #3
Идентификатор : 11
Формат : UTF-8
Идентификатор кодека : S_TEXT/UTF8
Идентификатор кодека/Информация : UTF-8 Plain Text
Заголовок : Radegast
Язык : Russian
Default : Нет
Forced : Нет
Текст #4
Идентификатор : 12
Формат : UTF-8
Идентификатор кодека : S_TEXT/UTF8
Идентификатор кодека/Информация : UTF-8 Plain Text
Язык : English
Default : Нет
Forced : Нет
Меню
00:00:00.000 : en:The Audition
00:11:28.688 : en:Verone's New Drivers
00:14:19.817 : en:The Man for the Job
00:16:01.627 : en:In the Interest of Justice
00:18:56.344 : en:Busted
00:24:22.544 : en:Surprise!
00:28:15.819 : en:Time for Ignition
00:35:13.153 : en:Hungry
00:40:07.322 : en:The Best of Everything
00:46:43.384 : en:Two More Cars
00:58:54.114 : en:A Little Fun
01:05:02.190 : en:Looking for Monica
01:10:24.303 : en:The Wrong Two Guys
01:13:37.038 : en:Guns, Murderers & Cops
01:22:14.638 : en:Let the Party Begin
01:29:53.138 : en:The New Plan
01:35:16.628 : en:Doing It Big
01:37:31.971 : en:Clean Records
01:40:32.026 : en:End Titles
-Скриншоты-        
-
-

Тройной форсаж: Токийский Дрифт / The Fast and the Furious: Tokyo Drift (2006)

Тройной форсаж: Токийский Дрифт / The Fast and the Furious: Tokyo Drift (2006) BDRip
«На улицах Токио, слово «скорость» не нуждается в переводе»
Год выпуска: 2006
Жанр: Боевик, Триллер, Криминал
Производство: США, Германия-Описание фильма:
Шон Босуэлл — одинокий парень, который хочет казаться профи уличных гонок. Он бесшабашно гоняется по улицам города, пытаясь убежать от жизненных невзгод и наживая себе врагов среди местных властей. Когда Шону грозит тюрьма, его от греха подальше отсылают к отцу — профессиональному военному, который служит на военной базе в Японии.
В незнакомой стране, живущей по своим законам, Шон чувствует себя еще большим изгоем. Однако вскоре его американский приятель Твинки знакомит его с миром подпольного дрифт-рейсинга. Раньше Шон просто тупо гонялся по улицам, а здесь перед ним открылся целый мир своеобразного искусства из металла и резины, дороги которого оказались невообразимо круты на поворотах…-Режиссер: Джастин Лин-Актеры: Пол Уокер, Вин Дизель, Дуэйн Джонсон, Мишель Родригес, Джордана Брюстер, Рик Юн, Чад Линдберг, Джонни Стронг, Мэтт Шульце, Тед Левайн, Джа Рул, Тайриз Гибсон, Ева Мендес, Коул Хаузер, Лудакрис, Том Бэрри, Джеймс Римар, Девон Аоки, Амори Ноласко, Майкл Или, Лукас Блэк, Бау Вау, Брайан Ти, Санг Кенг, Брэндон Брендел, Дэниэл Буко, Дэвид Томас, Эмбер Стивенс, Ашика Гонья, Кристиан Салазар-Продолжительность: 01:44:14
Качество видео: BDRip 1080p
Перевод: Профессиональный (многоголосый закадровый), Профессиональный (полное дублирование), Авторский (одноголосый закадровый)
Язык субтитров: Russian (forced), Russian, English
Вид субтитров: Вшитые (отключаемые*)
-Видеокодек: MPEG-4 AVC/H.264
Битрейт видео: 16500 kbps avg
Размер кадра: 1920x816
Аудиокодек: AC3, DTS
Аудио#1: Russian: 48 kHz, AC3, 5.1, 448 kbps |Дубляж, Blu-ray CEE|
Аудио#2: Russian: 48 kHz, DTS, 5.1, 755 kbps |Одноголосый закадровый, Ю. Немахов|
Аудио#3: Russian: 48 kHz, DTS, 5.1, 1509 kbps |Одноголосый закадровый, А. Гаврилов|
Аудио#4: Ukrainian: 48 kHz, AC3, 2.0, 192 kbps |Многоголосый закадровый, Так Треба Продакшн / Украина|
Аудио#5: English: 48 kHz, DTS, 5.1, ~1509.00 kbps avg-

minfo

Общее
Уникальный идентификатор : 173807807188701369119332983825238185831 (0x82C22A81D0508685B06731F10C61D767)
Полное имя : A:\Фильмы\Fast.&.Furious.Collection.1080p.BluRay.Rus.Ukr.Eng.HDCLUB\The.Fast.and.the.Furious.Tokyo.Drift.2006.1080p.BluRay.3xRus.Ukr.Eng.HDCLUB.mkv
Формат : Matroska
Версия формата : Version 4 / Version 2
Размер файла : 15,5 Гбайт
Продолжительность : 1 ч. 44 м.
Общий поток : 21,3 Мбит/сек
Название фильма : The Fast and the Furious: Tokyo Drift (2006) - Release for HDCLUB
Дата кодирования : UTC 2014-01-24 09:54:14
Программа кодирования : mkvmerge v6.6.0 ('The Edge Of The In Between') built on Dec 1 2013 17:55:00
Библиотека кодирования : libebml v1.3.0 + libmatroska v1.4.1
Attachment : Yes
Видео
Идентификатор : 1
Формат : AVC
Формат/Информация : Advanced Video Codec
Профиль формата : [url=mailto:[email protected]][email protected][/url]
Параметр CABAC формата : Да
Параметр ReFrames формата : 5 кадров
Идентификатор кодека : V_MPEG4/ISO/AVC
Продолжительность : 1 ч. 44 м.
Битрейт : 16,5 Мбит/сек
Ширина : 1920 пикселей
Высота : 816 пикселей
Соотношение сторон : 2,35:1
Режим частоты кадров : Постоянный
Частота кадров : 23,976 кадра/сек
Цветовое пространство : YUV
Субдискретизация насыщенности : 4:2:0
Битовая глубина : 8 бит
Тип развёртки : Прогрессивная
Бит/(Пиксели*Кадры) : 0.438
Размер потока : 12,0 Гбайт (77%)
Заголовок : Release for HDCLUB
Библиотека кодирования : x264 core 132 r2309kMod 3b1f1f7
Настройки программы : cabac=1 / ref=5 / deblock=1:-3:-3 / analyse=0x3:0x133 / me=umh / subme=10 / psy=1 / fade_compensate=0.00 / psy_rd=1.10:0.00 / mixed_ref=1 / me_range=48 / chroma_me=1 / trellis=2 / 8x8dct=1 / cqm=0 / deadzone=21,11 / fast_pskip=0 / chroma_qp_offset=-2 / threads=12 / lookahead_threads=2 / sliced_threads=0 / nr=0 / decimate=1 / interlaced=0 / bluray_compat=0 / constrained_intra=0 / bframes=7 / b_pyramid=2 / b_adapt=2 / b_bias=0 / direct=3 / weightb=1 / open_gop=0 / weightp=2 / keyint=250 / keyint_min=23 / scenecut=40 / intra_refresh=0 / rc=crf / mbtree=0 / crf=16.7500 / qcomp=0.60 / qpmin=0 / qpmax=69 / qpstep=4 / ip_ratio=1.30 / pb_ratio=1.20 / aq=1:0.80
Язык : English
Default : Да
Forced : Нет
Аудио #1
Идентификатор : 2
Формат : AC-3
Формат/Информация : Audio Coding 3
Расширение режима : CM (complete main)
Параметр Endianness формата : Big
Идентификатор кодека : A_AC3
Продолжительность : 1 ч. 44 м.
Вид битрейта : Постоянный
Битрейт : 448 Кбит/сек
Каналы : 6 каналов
Расположение каналов : Front: L C R, Side: L R, LFE
Частота : 48,0 КГц
Битовая глубина : 16 бит
Метод сжатия : С потерями
Размер потока : 334 Мбайт (2%)
Заголовок : Dub, Blu-ray CEE
Язык : Russian
Default : Да
Forced : Нет
Аудио #2
Идентификатор : 3
Формат : DTS
Формат/Информация : Digital Theater Systems
Режим : 16
Параметр Endianness формата : Big
Идентификатор кодека : A_DTS
Продолжительность : 1 ч. 44 м.
Вид битрейта : Постоянный
Битрейт : 755 Кбит/сек
Каналы : 6 каналов
Расположение каналов : Front: L C R, Side: L R, LFE
Частота : 48,0 КГц
Битовая глубина : 24 бит
Метод сжатия : С потерями
Размер потока : 563 Мбайт (4%)
Заголовок : VO, Немахов
Язык : Russian
Default : Нет
Forced : Нет
Аудио #3
Идентификатор : 4
Формат : DTS
Формат/Информация : Digital Theater Systems
Режим : 16
Параметр Endianness формата : Big
Идентификатор кодека : A_DTS
Продолжительность : 1 ч. 44 м.
Вид битрейта : Постоянный
Битрейт : 1509 Кбит/сек
Каналы : 6 каналов
Расположение каналов : Front: L C R, Side: L R, LFE
Частота : 48,0 КГц
Битовая глубина : 24 бит
Метод сжатия : С потерями
Размер потока : 1,10 Гбайт (7%)
Заголовок : VO, Гаврилов
Язык : Russian
Default : Нет
Forced : Нет
Аудио #4
Идентификатор : 5
Формат : AC-3
Формат/Информация : Audio Coding 3
Расширение режима : CM (complete main)
Параметр Endianness формата : Big
Идентификатор кодека : A_AC3
Продолжительность : 1 ч. 44 м.
Вид битрейта : Постоянный
Битрейт : 192 Кбит/сек
Каналы : 2 канала
Расположение каналов : Front: L R
Частота : 48,0 КГц
Битовая глубина : 16 бит
Метод сжатия : С потерями
Размер потока : 143 Мбайт (1%)
Заголовок : MVO, Так Треба Продакшн / Украина
Язык : Ukrainian
Default : Нет
Forced : Нет
Аудио #5
Идентификатор : 6
Формат : DTS
Формат/Информация : Digital Theater Systems
Режим : 16
Параметр Endianness формата : Big
Идентификатор кодека : A_DTS
Продолжительность : 1 ч. 44 м.
Вид битрейта : Постоянный
Битрейт : 1509 Кбит/сек
Каналы : 6 каналов
Расположение каналов : Front: L C R, Side: L R, LFE
Частота : 48,0 КГц
Битовая глубина : 24 бит
Метод сжатия : С потерями
Размер потока : 1,10 Гбайт (7%)
Язык : English
Default : Нет
Forced : Нет
Текст #1
Идентификатор : 7
Формат : UTF-8
Идентификатор кодека : S_TEXT/UTF8
Идентификатор кодека/Информация : UTF-8 Plain Text
Заголовок : forced
Язык : Russian
Default : Да
Forced : Нет
Текст #2
Идентификатор : 8
Формат : UTF-8
Идентификатор кодека : S_TEXT/UTF8
Идентификатор кодека/Информация : UTF-8 Plain Text
Язык : Russian
Default : Нет
Forced : Нет
Текст #3
Идентификатор : 9
Формат : UTF-8
Идентификатор кодека : S_TEXT/UTF8
Идентификатор кодека/Информация : UTF-8 Plain Text
Язык : English
Default : Нет
Forced : Нет
Меню
00:00:00.000 : en:Main Titles
00:03:04.434 : en:Winner Take All
00:09:43.499 : en:Off the Streets
00:12:10.688 : en:Stick to the Rules
00:16:15.391 : en:First Day in Class
00:20:16.840 : en:My Ride
00:26:36.469 : en:DK Challenge
00:32:56.849 : en:No Choice
00:41:14.305 : en:Represent
00:46:34.833 : en:Trust & Character
00:52:55.255 : en:Feel It
00:58:20.121 : en:Drifting Fate
01:01:46.244 : en:Gaijin
01:05:50.488 : en:For Want
01:08:56.090 : en:It's What We Do
01:16:14.611 : en:My Mess
01:20:31.409 : en:Peaceful Resolution
01:26:53.249 : en:To the Finish
01:34:59.944 : en:An Old Friend
01:37:33.848 : en:End Titles
-Скриншоты-        

-
-

Форсаж 4 / Fast & Furious (2009)

Форсаж 4 / Fast & Furious (2009) BDRip
«Новые тачки. Старая команда»
Год выпуска: 2009
Жанр: Боевик, Триллер, Криминал
Производство: США, Германия-Описание фильма:
Когда кривая дорожка заставляет скрывающегося от правосудия Дома Торетто вернуться в Лос-Анджелес, вражда с агентом Брайаном О’Коннером вспыхивает с новой силой. Но у парочки обнаруживается общий противник, и Дому с Брайаном приходится заключить перемирие в надежде одержать над ним победу. Грабя конвои, роя подкопы и пересекая границы, они приходят к идеальной форме отмщения — педали газа, вдавленной до упора.-Режиссер: Джастин Лин-Актеры: Пол Уокер, Вин Дизель, Дуэйн Джонсон, Мишель Родригес, Джордана Брюстер, Рик Юн, Чад Линдберг, Джонни Стронг, Мэтт Шульце, Тед Левайн, Джа Рул, Тайриз Гибсон, Ева Мендес, Коул Хаузер, Лудакрис, Том Бэрри, Джеймс Римар, Девон Аоки, Амори Ноласко, Майкл Или, Лукас Блэк, Бау Вау, Брайан Ти, Санг Кенг, Брэндон Брендел, Дэниэл Буко, Дэвид Томас, Эмбер Стивенс, Ашика Гонья, Кристиан Салазар-Продолжительность: 01:46:52
Качество видео: BDRip 1080p
Перевод: Профессиональный (многоголосый закадровый), Профессиональный (полное дублирование), Авторский (одноголосый закадровый)
Язык субтитров: Russian (forced), Russian, English
Вид субтитров: Вшитые (отключаемые*)
-Видеокодек: MPEG-4 AVC/H.264
Битрейт видео: 16200 kbps avg
Размер кадра: 1920x800
Аудиокодек: AC3, DTS
Аудио#1: Russian: 48 kHz, DTS, 5.1, 768 kbps |Дубляж, Blu-ray CEE|
Аудио#2: Russian: 48 kHz, AC3, 5.1, 448 kbps |Одноголосый закадровый, Ю. Немахов|
Аудио#3: Russian: 48 kHz, DTS, 5.1, 1509 kbps |Одноголосый закадровый, А. Гаврилов|
Аудио#4: Ukrainian: 48 kHz, AC3, 5.1, 448 kbps |Дубляж|
Аудио#5: Ukrainian: 48 kHz, AC3, 2.0, 192 kbps |Многоголосый закадровый, Украина|
Аудио#6: English: 48 kHz, DTS, 5.1, ~1509.00 kbps avg-

minfo

Общее
Уникальный идентификатор : 247854457625089308257781056135413915353 (0xBA77083CE20FD0A1A0BA911D41E05ED9)
Полное имя : A:\Фильмы\Fast.&.Furious.Collection.1080p.BluRay.Rus.Ukr.Eng.HDCLUB\Fast.&.Furious.2009.1080p.BluRay.3xRus.2xUkr.Eng.HDCLUB-SbR.mkv
Формат : Matroska
Версия формата : Version 4 / Version 2
Размер файла : 16,1 Гбайт
Продолжительность : 1 ч. 46 м.
Общий поток : 21,5 Мбит/сек
Название фильма : Fast & Furious (2009) - Release for HDCLUB by SbR
Дата кодирования : UTC 2014-01-27 04:35:56
Программа кодирования : mkvmerge v6.6.0 ('The Edge Of The In Between') built on Dec 1 2013 17:55:00
Библиотека кодирования : libebml v1.3.0 + libmatroska v1.4.1
Attachment : Yes / Yes
Видео
Идентификатор : 1
Формат : AVC
Формат/Информация : Advanced Video Codec
Профиль формата : [url=mailto:[email protected]][email protected][/url]
Параметр CABAC формата : Да
Параметр ReFrames формата : 5 кадров
Идентификатор кодека : V_MPEG4/ISO/AVC
Продолжительность : 1 ч. 46 м.
Битрейт : 16,2 Мбит/сек
Ширина : 1920 пикселей
Высота : 800 пикселей
Соотношение сторон : 2,40:1
Режим частоты кадров : Постоянный
Частота кадров : 23,976 кадра/сек
Цветовое пространство : YUV
Субдискретизация насыщенности : 4:2:0
Битовая глубина : 8 бит
Тип развёртки : Прогрессивная
Бит/(Пиксели*Кадры) : 0.440
Размер потока : 12,1 Гбайт (75%)
Заголовок : Release for HDCLUB
Библиотека кодирования : x264 core 140 r2377+40 929f149 tMod [[email protected]:2:0 X86_64]
Настройки программы : cabac=1 / ref=5 / deblock=1:-2:-2 / analyse=0x3:0x113 / me=umh / subme=11 / psy=1 / fade_compensate=0.00 / psy_rd=1.00:0.00 / mixed_ref=1 / me_range=48 / chroma_me=1 / trellis=2 / 8x8dct=1 / cqm=0 / deadzone=21,11 / fast_pskip=1 / chroma_qp_offset=-2 / threads=12 / lookahead_threads=3 / sliced_threads=0 / nr=0 / decimate=1 / interlaced=0 / bluray_compat=0 / constrained_intra=0 / fgo=0 / bframes=10 / b_pyramid=2 / b_adapt=2 / b_bias=0 / direct=3 / weightb=1 / open_gop=0 / weightp=2 / keyint=250 / keyint_min=23 / scenecut=40 / intra_refresh=0 / rc_lookahead=60 / rc=crf / mbtree=0 / crf=18.5000 / qcomp=0.70 / qpmin=0:0:0 / qpmax=69:69:69 / qpstep=4 / vbv_maxrate=62500 / vbv_bufsize=78125 / crf_max=0.0 / nal_hrd=none / filler=0 / ip_ratio=1.40 / pb_ratio=1.30 / aq=4:0.80 / aq-sensitivity=11.00 / aq-factor=1.00:1.00:1.00 / aq2=1:0.60 / aq2-sensitivity=9.00 / aq2-factor=1.00:1.00:1.00 / aq3=1:[0.60:0.60]:[0.60:0.60]:[0.60:0.60]:[0.60:0.60] / aq3-sensitivity=10.00 / aq3-factor=[1.00:1.00]:[1.00:1.00]:[1.00:1.00] / aq3-boundary=192:64:24
Язык : English
Default : Да
Forced : Нет
Основные цвета : BT.709
Характеристики трансфера : BT.709
Коэффициенты матрицы : BT.709
Аудио #1
Идентификатор : 2
Формат : DTS
Формат/Информация : Digital Theater Systems
Режим : 16
Параметр Endianness формата : Big
Идентификатор кодека : A_DTS
Продолжительность : 1 ч. 46 м.
Вид битрейта : Постоянный
Битрейт : 768 Кбит/сек
Каналы : 6 каналов
Расположение каналов : Front: L C R, Side: L R, LFE
Частота : 48,0 КГц
Битовая глубина : 24 бит
Метод сжатия : С потерями
Размер потока : 587 Мбайт (4%)
Заголовок : Dub, Blu-ray CEE
Язык : Russian
Default : Нет
Forced : Нет
Аудио #2
Идентификатор : 3
Формат : AC-3
Формат/Информация : Audio Coding 3
Расширение режима : CM (complete main)
Параметр Endianness формата : Big
Идентификатор кодека : A_AC3
Продолжительность : 1 ч. 46 м.
Вид битрейта : Постоянный
Битрейт : 448 Кбит/сек
Каналы : 6 каналов
Расположение каналов : Front: L C R, Side: L R, LFE
Частота : 48,0 КГц
Битовая глубина : 16 бит
Метод сжатия : С потерями
Размер потока : 342 Мбайт (2%)
Заголовок : VO, Немахов
Язык : Russian
Default : Нет
Forced : Нет
Аудио #3
Идентификатор : 4
Формат : DTS
Формат/Информация : Digital Theater Systems
Режим : 16
Параметр Endianness формата : Big
Идентификатор кодека : A_DTS
Продолжительность : 1 ч. 46 м.
Вид битрейта : Постоянный
Битрейт : 1509 Кбит/сек
Каналы : 6 каналов
Расположение каналов : Front: L C R, Side: L R, LFE
Частота : 48,0 КГц
Битовая глубина : 24 бит
Метод сжатия : С потерями
Размер потока : 1,13 Гбайт (7%)
Заголовок : VO, Гаврилов
Язык : Russian
Default : Нет
Forced : Нет
Аудио #4
Идентификатор : 5
Формат : AC-3
Формат/Информация : Audio Coding 3
Расширение режима : CM (complete main)
Параметр Endianness формата : Big
Идентификатор кодека : A_AC3
Продолжительность : 1 ч. 46 м.
Вид битрейта : Постоянный
Битрейт : 448 Кбит/сек
Каналы : 6 каналов
Расположение каналов : Front: L C R, Side: L R, LFE
Частота : 48,0 КГц
Битовая глубина : 16 бит
Метод сжатия : С потерями
Размер потока : 342 Мбайт (2%)
Заголовок : Dub
Язык : Ukrainian
Default : Нет
Forced : Нет
Аудио #5
Идентификатор : 6
Формат : AC-3
Формат/Информация : Audio Coding 3
Расширение режима : CM (complete main)
Параметр Endianness формата : Big
Идентификатор кодека : A_AC3
Продолжительность : 1 ч. 46 м.
Вид битрейта : Постоянный
Битрейт : 192 Кбит/сек
Каналы : 2 канала
Расположение каналов : Front: L R
Частота : 48,0 КГц
Битовая глубина : 16 бит
Метод сжатия : С потерями
Размер потока : 147 Мбайт (1%)
Заголовок : MVO, Украина
Язык : Ukrainian
Default : Нет
Forced : Нет
Аудио #6
Идентификатор : 7
Формат : DTS
Формат/Информация : Digital Theater Systems
Режим : 16
Параметр Endianness формата : Big
Идентификатор кодека : A_DTS
Продолжительность : 1 ч. 46 м.
Вид битрейта : Постоянный
Битрейт : 1509 Кбит/сек
Каналы : 6 каналов
Расположение каналов : Front: L C R, Side: L R, LFE
Частота : 48,0 КГц
Битовая глубина : 24 бит
Метод сжатия : С потерями
Размер потока : 1,13 Гбайт (7%)
Язык : English
Default : Нет
Forced : Нет
Текст #1
Идентификатор : 8
Формат : UTF-8
Идентификатор кодека : S_TEXT/UTF8
Идентификатор кодека/Информация : UTF-8 Plain Text
Заголовок : forced
Язык : Russian
Default : Да
Forced : Нет
Текст #2
Идентификатор : 9
Формат : UTF-8
Идентификатор кодека : S_TEXT/UTF8
Идентификатор кодека/Информация : UTF-8 Plain Text
Язык : Russian
Default : Нет
Forced : Нет
Текст #3
Идентификатор : 10
Формат : UTF-8
Идентификатор кодека : S_TEXT/UTF8
Идентификатор кодека/Информация : UTF-8 Plain Text
Язык : English
Default : Нет
Forced : Нет
Меню
00:00:00.000 : en:Game Time
00:07:26.529 : en:Ride Or Die
00:11:46.955 : en:Foot Pursuit
00:16:46.755 : en:Coming Home
00:24:24.087 : en:Back On The Scene
00:29:05.452 : en:Tuned-Up
00:34:05.293 : en:A Real Driver
00:37:30.790 : en:Muscle Beats Import
00:46:07.347 : en:Boss Os Bosses
00:53:37.380 : en:Along For The Ride
00:58:15.158 : en:High-Performance
01:04:49.218 : en:Spotted Together
01:07:29.879 : en:Food, Family, Friendship
01:12:01.859 : en:Just Business
01:14:46.523 : en:Primary Target
01:20:36.164 : en:Juisdiction Ends
01:25:03.264 : en:Ain't Forgiven
01:29:09.385 : en:Run For The Border
01:35:54.999 : en:Steet Pardon
01:39:24.957 : en:End Titles
-Скриншоты-        

-
-

Форсаж 5 / Fast Five (Extended Cut) (2011)

Форсаж 5 / Fast Five (Extended Cut) (2011) BDRip
«Всё решает скорость, всё решает команда»
Год выпуска: 2011
Жанр: Боевик, Триллер, Криминал
Производство: США, Германия-Описание фильма:
После того как бывший полицейский Брайан О'Коннер помог сбежать из тюрьмы Доминику Торетто, оба вынуждены скрываться от властей США в Бразилии. Но чтобы обрести полную свободу, им предстоит выполнить еще одно дело. Их цель – глава мафии Рио-де-Жанейро. Кроме того по следам О'Коннера и Торрето идет федеральный агент Люк Хоббс с группой спецназа, который всегда выполняет поставленные перед ними задачи.-Режиссер: Джастин Лин-Актеры: Пол Уокер, Вин Дизель, Дуэйн Джонсон, Мишель Родригес, Джордана Брюстер, Рик Юн, Чад Линдберг, Джонни Стронг, Мэтт Шульце, Тед Левайн, Джа Рул, Тайриз Гибсон, Ева Мендес, Коул Хаузер, Лудакрис, Том Бэрри, Джеймс Римар, Девон Аоки, Амори Ноласко, Майкл Или, Лукас Блэк, Бау Вау, Брайан Ти, Санг Кенг, Брэндон Брендел, Дэниэл Буко, Дэвид Томас, Эмбер-Стивенс, Ашика Гонья, Кристиан Салазар
Продолжительность: 02:11:35
Качество видео: BDRip 1080p
Перевод: Профессиональный (полное дублирование), Авторский (одноголосый закадровый)
Язык субтитров: Russian (forced), Russian, English
Вид субтитров: Вшитые (отключаемые*)- -Видеокодек: MPEG-4 AVC/H.264
Битрейт видео: 14700 kbps avg
Размер кадра: 1920x816
Аудиокодек: DTS
Аудио#1: Russian: 48 kHz, DTS, 5.1, ~755 kbps |Дубляж|
Аудио#2: Russian: 48 kHz, DTS, 5.1, ~1509 kbps |Одноголосый закадровый, А. Гаврилов|
Аудио#3: English: 48 kHz, DTS, 5.1, ~1509.00 kbps avg-

minfo

Общее
Уникальный идентификатор : 238644081746395901236819828006129111037 (0xB3892DA5A232927084BBB58AEE8E0FFD)
Полное имя : A:\Фильмы\Fast.&.Furious.Collection.1080p.BluRay.Rus.Ukr.Eng.HDCLUB\Fast.Five.2011.1080p.BluRay.2xRus.Eng.HDCLUB.mkv
Формат : Matroska
Версия формата : Version 4 / Version 2
Размер файла : 17,0 Гбайт
Продолжительность : 2 ч. 11 м.
Общий поток : 18,5 Мбит/сек
Название фильма : Fast Five (2011) - Release for HDCLUB
Дата кодирования : UTC 2014-01-27 06:29:21
Программа кодирования : mkvmerge v6.6.0 ('The Edge Of The In Between') built on Dec 1 2013 17:55:00
Библиотека кодирования : libebml v1.3.0 + libmatroska v1.4.1
Attachment : Yes
Видео
Идентификатор : 1
Формат : AVC
Формат/Информация : Advanced Video Codec
Профиль формата : [url=mailto:[email protected]][email protected][/url]
Параметр CABAC формата : Да
Параметр ReFrames формата : 5 кадров
Идентификатор кодека : V_MPEG4/ISO/AVC
Продолжительность : 2 ч. 11 м.
Битрейт : 14,7 Мбит/сек
Ширина : 1920 пикселей
Высота : 816 пикселей
Соотношение сторон : 2,35:1
Режим частоты кадров : Постоянный
Частота кадров : 23,976 кадра/сек
Цветовое пространство : YUV
Субдискретизация насыщенности : 4:2:0
Битовая глубина : 8 бит
Тип развёртки : Прогрессивная
Бит/(Пиксели*Кадры) : 0.392
Размер потока : 13,2 Гбайт (78%)
Заголовок : Release for HDCLUB
Библиотека кодирования : x264 core 116 r2074kMod 2641b9e
Настройки программы : cabac=1 / ref=5 / deblock=1:-3:-3 / analyse=0x3:0x133 / me=tesa / subme=10 / psy=1 / fade_compensate=0.00 / psy_rd=1.20:0.10 / mixed_ref=1 / me_range=24 / chroma_me=1 / trellis=2 / 8x8dct=1 / cqm=0 / deadzone=21,11 / fast_pskip=0 / chroma_qp_offset=-3 / threads=6 / sliced_threads=0 / nr=0 / decimate=1 / interlaced=0 / bluray_compat=0 / constrained_intra=0 / bframes=6 / b_pyramid=2 / b_adapt=2 / b_bias=0 / direct=3 / weightb=1 / open_gop=0 / weightp=2 / keyint=250 / keyint_min=23 / scenecut=40 / intra_refresh=0 / rc_lookahead=100 / rc=2pass / mbtree=1 / bitrate=14743 / ratetol=1.0 / qcomp=0.60 / qpmin=0 / qpmax=69 / qpstep=4 / cplxblur=20.0 / qblur=0.5 / vbv_maxrate=50000 / vbv_bufsize=62500 / nal_hrd=none / ip_ratio=1.40 / aq=3:0.90
Язык : English
Default : Да
Forced : Нет
Аудио #1
Идентификатор : 2
Формат : DTS
Формат/Информация : Digital Theater Systems
Режим : 16
Параметр Endianness формата : Big
Идентификатор кодека : A_DTS
Продолжительность : 2 ч. 11 м.
Вид битрейта : Постоянный
Битрейт : 755 Кбит/сек
Каналы : 6 каналов
Расположение каналов : Front: L C R, Side: L R, LFE
Частота : 48,0 КГц
Битовая глубина : 24 бит
Метод сжатия : С потерями
Размер потока : 710 Мбайт (4%)
Заголовок : Dub
Язык : Russian
Default : Да
Forced : Нет
Аудио #2
Идентификатор : 3
Формат : DTS
Формат/Информация : Digital Theater Systems
Режим : 16
Параметр Endianness формата : Big
Идентификатор кодека : A_DTS
Продолжительность : 2 ч. 11 м.
Вид битрейта : Постоянный
Битрейт : 1509 Кбит/сек
Каналы : 6 каналов
Расположение каналов : Front: L C R, Side: L R, LFE
Частота : 48,0 КГц
Битовая глубина : 24 бит
Метод сжатия : С потерями
Размер потока : 1,39 Гбайт (8%)
Заголовок : VO, Гаврилов
Язык : Russian
Default : Нет
Forced : Нет
Аудио #3
Идентификатор : 4
Формат : DTS
Формат/Информация : Digital Theater Systems
Режим : 16
Параметр Endianness формата : Big
Идентификатор кодека : A_DTS
Продолжительность : 2 ч. 11 м.
Вид битрейта : Постоянный
Битрейт : 1509 Кбит/сек
Каналы : 6 каналов
Расположение каналов : Front: L C R, Side: L R, LFE
Частота : 48,0 КГц
Битовая глубина : 24 бит
Метод сжатия : С потерями
Размер потока : 1,39 Гбайт (8%)
Язык : English
Default : Нет
Forced : Нет
Текст #1
Идентификатор : 5
Формат : UTF-8
Идентификатор кодека : S_TEXT/UTF8
Идентификатор кодека/Информация : UTF-8 Plain Text
Заголовок : forced
Язык : Russian
Default : Да
Forced : Нет
Текст #2
Идентификатор : 6
Формат : UTF-8
Идентификатор кодека : S_TEXT/UTF8
Идентификатор кодека/Информация : UTF-8 Plain Text
Язык : Russian
Default : Нет
Forced : Нет
Текст #3
Идентификатор : 7
Формат : UTF-8
Идентификатор кодека : S_TEXT/UTF8
Идентификатор кодека/Информация : UTF-8 Plain Text
Язык : English
Default : Нет
Forced : Нет
Меню
00:00:00.000 : en:00:00:00.000
00:07:45.715 : en:00:07:45.715
00:17:29.465 : en:00:17:29.465
00:23:01.839 : en:00:23:01.839
00:28:21.575 : en:00:28:21.575
00:35:05.353 : en:00:35:05.353
00:40:56.037 : en:00:40:56.037
00:48:51.303 : en:00:48:51.303
00:55:29.993 : en:00:55:29.993
01:04:07.552 : en:01:04:07.552
01:11:42.256 : en:01:11:42.256
01:19:23.467 : en:01:19:23.467
01:23:33.800 : en:01:23:33.800
01:28:56.331 : en:01:28:56.331
01:32:57.489 : en:01:32:57.489
01:40:27.104 : en:01:40:27.104
01:48:14.530 : en:01:48:14.530
01:56:03.915 : en:01:56:03.915
02:00:29.013 : en:02:00:29.013
02:04:38.096 : en:02:04:38.096
-Скриншоты-        

-
-

Форсаж 6 / Furious 6 (Extended Cut) (2013)

Форсаж 6 / Furious 6 (Extended Cut) (2013) BDRip
«Все дороги принадлежат им»
Год выпуска: 2013
Жанр: Боевик, Триллер, Криминал
Производство: США, Германия-Описание фильма:
После того как Доминик и Брайн побывали в Рио, где они ограбили и свергли империю вора в законе, их команда получила 100 миллионов, и наши герои оказались разбросаны по всему миру. Но их привычка вечно жить в бегах не даёт им покоя. Между тем, Хоббс отслеживал организацию смертельно опасных наёмников-водителей по двенадцати странам. Единственный способ остановить эту криминальную группу — это превзойти их на улицах, поэтому Хоббс просит Доминика собрать его элитную команду в Лондоне. За это он обещает полное помилование для Доминика и его друзей, чтобы они смогли наконец вернуться домой к своей семье.-Режиссер: Джастин Лин-Актеры: Пол Уокер, Вин Дизель, Дуэйн Джонсон, Мишель Родригес, Джордана Брюстер, Рик Юн, Чад Линдберг, Джонни Стронг, Мэтт Шульце, Тед Левайн, Джа Рул, Тайриз Гибсон, Ева Мендес, Коул Хаузер, Лудакрис, Том Бэрри, Джеймс Римар, Девон Аоки, Амори Ноласко, Майкл Или, Лукас Блэк, Бау Вау, Брайан Ти, Санг Кенг, Брэндон Брендел, Дэниэл Буко, Дэвид Томас, Эмбер Стивенс, Ашика Гонья, Кристиан Салазар-Продолжительность: 02:11:03
Качество видео: BDRip 1080p
Перевод: Профессиональный (многоголосый закадровый), Профессиональный (полное дублирование), Авторский (одноголосый закадровый)
Язык субтитров: Russian (forced), Russian, Ukrainian (captions), English, English (SDH)
Вид субтитров: Вшитые (отключаемые*)- -Видеокодек: MPEG-4 AVC/H.264
Битрейт видео: 14100 kbps avg
Размер кадра: 1920x816
Аудиокодек: DTS
Аудио#1: Russian: 48 kHz, DTS, 5.1, 768 kbps |Дубляж, Blu-ray|
Аудио#2: Russian: 48 kHz, DTS, 5.1, 1509 kbps |Одноголосый закадровый, Л. Володарский|
Аудио#3: English: 48 kHz, DTS, 5.1, ~1509.00 kbps avg-

minfo

Общее
Уникальный идентификатор : 176906857749659652711928030932124811898 (0x8517057F1B72CD72BDBDC39CA31BC27A)
Полное имя : A:\Фильмы\Fast.&.Furious.Collection.1080p.BluRay.Rus.Ukr.Eng.HDCLUB\Furious.6.2013.1080p.BluRay.2xRus.Eng.HDCLUB.mkv
Формат : Matroska
Версия формата : Version 4 / Version 2
Размер файла : 16,7 Гбайт
Продолжительность : 2 ч. 11 м.
Общий поток : 18,3 Мбит/сек
Название фильма : Furious 6 (2013) - Release for HDCLUB
Дата кодирования : UTC 2014-01-25 10:13:47
Программа кодирования : mkvmerge v6.6.0 ('The Edge Of The In Between') built on Dec 1 2013 17:55:00
Библиотека кодирования : libebml v1.3.0 + libmatroska v1.4.1
Attachment : Yes
Видео
Идентификатор : 1
Формат : AVC
Формат/Информация : Advanced Video Codec
Профиль формата : [url=mailto:[email protected]][email protected][/url]
Параметр CABAC формата : Да
Параметр ReFrames формата : 5 кадров
Идентификатор кодека : V_MPEG4/ISO/AVC
Продолжительность : 2 ч. 11 м.
Битрейт : 14,1 Мбит/сек
Ширина : 1920 пикселей
Высота : 816 пикселей
Соотношение сторон : 2,35:1
Режим частоты кадров : Постоянный
Частота кадров : 23,976 кадра/сек
Цветовое пространство : YUV
Субдискретизация насыщенности : 4:2:0
Битовая глубина : 8 бит
Тип развёртки : Прогрессивная
Бит/(Пиксели*Кадры) : 0.376
Размер потока : 12,9 Гбайт (77%)
Заголовок : Release for HDCLUB
Библиотека кодирования : x264 core 138 r2358kMod 9e941d1
Настройки программы : cabac=1 / ref=5 / deblock=1:-3:-3 / analyse=0x3:0x133 / me=umh / subme=10 / psy=1 / fade_compensate=0.00 / psy_rd=1.10:0.00 / mixed_ref=1 / me_range=24 / chroma_me=1 / trellis=2 / 8x8dct=1 / cqm=0 / deadzone=21,11 / fast_pskip=0 / chroma_qp_offset=-2 / threads=3 / lookahead_threads=1 / sliced_threads=0 / nr=0 / decimate=0 / interlaced=0 / bluray_compat=0 / constrained_intra=0 / bframes=7 / b_pyramid=2 / b_adapt=2 / b_bias=0 / direct=3 / weightb=1 / open_gop=0 / weightp=2 / keyint=250 / keyint_min=23 / scenecut=40 / intra_refresh=0 / rc_lookahead=60 / rc=crf / mbtree=0 / crf=17.7777 / qcomp=0.75 / qpmin=0 / qpmax=69 / qpstep=4 / vbv_maxrate=50000 / vbv_bufsize=62500 / crf_max=0.0 / nal_hrd=none / ip_ratio=1.30 / pb_ratio=1.20 / aq=3:0.60
Язык : English
Default : Да
Forced : Нет
Аудио #1
Идентификатор : 2
Формат : DTS
Формат/Информация : Digital Theater Systems
Режим : 16
Параметр Endianness формата : Big
Идентификатор кодека : A_DTS
Продолжительность : 2 ч. 11 м.
Вид битрейта : Постоянный
Битрейт : 768 Кбит/сек
Каналы : 6 каналов
Расположение каналов : Front: L C R, Side: L R, LFE
Частота : 48,0 КГц
Битовая глубина : 24 бит
Метод сжатия : С потерями
Размер потока : 720 Мбайт (4%)
Заголовок : Dub, Blu-ray
Язык : Russian
Default : Да
Forced : Нет
Аудио #2
Идентификатор : 3
Формат : DTS
Формат/Информация : Digital Theater Systems
Режим : 16
Параметр Endianness формата : Big
Идентификатор кодека : A_DTS
Продолжительность : 2 ч. 11 м.
Вид битрейта : Постоянный
Битрейт : 1509 Кбит/сек
Каналы : 6 каналов
Расположение каналов : Front: L C R, Side: L R, LFE
Частота : 48,0 КГц
Битовая глубина : 24 бит
Метод сжатия : С потерями
Размер потока : 1,38 Гбайт (8%)
Заголовок : VO, Володарский
Язык : Russian
Default : Нет
Forced : Нет
Аудио #3
Идентификатор : 4
Формат : DTS
Формат/Информация : Digital Theater Systems
Режим : 16
Параметр Endianness формата : Big
Идентификатор кодека : A_DTS
Продолжительность : 2 ч. 11 м.
Вид битрейта : Постоянный
Битрейт : 1509 Кбит/сек
Каналы : 6 каналов
Расположение каналов : Front: L C R, Side: L R, LFE
Частота : 48,0 КГц
Битовая глубина : 24 бит
Метод сжатия : С потерями
Размер потока : 1,38 Гбайт (8%)
Язык : English
Default : Нет
Forced : Нет
Текст #1
Идентификатор : 5
Формат : UTF-8
Идентификатор кодека : S_TEXT/UTF8
Идентификатор кодека/Информация : UTF-8 Plain Text
Заголовок : forced
Язык : Russian
Default : Да
Forced : Нет
Текст #2
Идентификатор : 6
Формат : UTF-8
Идентификатор кодека : S_TEXT/UTF8
Идентификатор кодека/Информация : UTF-8 Plain Text
Язык : Russian
Default : Нет
Forced : Нет
Текст #3
Идентификатор : 7
Формат : UTF-8
Идентификатор кодека : S_TEXT/UTF8
Идентификатор кодека/Информация : UTF-8 Plain Text
Заголовок : captions
Язык : Ukrainian
Default : Нет
Forced : Нет
Текст #4
Идентификатор : 8
Формат : UTF-8
Идентификатор кодека : S_TEXT/UTF8
Идентификатор кодека/Информация : UTF-8 Plain Text
Язык : Ukrainian
Default : Нет
Forced : Нет
Текст #5
Идентификатор : 9
Формат : UTF-8
Идентификатор кодека : S_TEXT/UTF8
Идентификатор кодека/Информация : UTF-8 Plain Text
Язык : English
Default : Нет
Forced : Нет
Текст #6
Идентификатор : 10
Формат : UTF-8
Идентификатор кодека : S_TEXT/UTF8
Идентификатор кодека/Информация : UTF-8 Plain Text
Заголовок : SDH
Язык : English
Default : Нет
Forced : Нет
Меню
00:00:00.000 : en:00:00:00.000
00:04:21.011 : en:00:04:21.011
00:10:19.118 : en:00:10:19.118
00:15:35.268 : en:00:15:35.268
00:19:18.574 : en:00:19:18.574
00:24:32.721 : en:00:24:32.721
00:30:23.405 : en:00:30:23.405
00:36:28.478 : en:00:36:28.478
00:44:01.305 : en:00:44:01.305
00:50:50.255 : en:00:50:50.255
00:56:54.327 : en:00:56:54.327
01:04:54.057 : en:01:04:54.057
01:10:14.293 : en:01:10:14.293
01:19:13.457 : en:01:19:13.457
01:25:41.178 : en:01:25:41.178
01:34:53.771 : en:01:34:53.771
01:41:48.561 : en:01:41:48.561
01:48:31.838 : en:01:48:31.838
01:57:48.812 : en:01:57:48.812
02:03:04.418 : en:02:03:04.418
-Скриншоты-        

-
-Скриншоты-        
       
-

Дополнительная информация

*Дорожки с переводом А. Гаврилова доступны благодаря пользователям форума e180: Nadoelo, Guyver, dr_akula, foxlight, Hattori Hanzo, Марлон, Kastro, ANISKIN50, Iceman, Bilko, SavineX78, MyxAmoP, uchitel538, maximus10-99, karantin66, фёдор александрович, Диммон, Loki1982, masta, Tio, mitabrev, vik19662007, Daniel Rock, jorn2, Wolf_Larsen, nimph, LAVR, ZeDOK, aladdin911, Savely, kinobbk, GaryH, El Capitain, 2vova2, bla_, STONECOLD, Серый, Denis2251, carnivale.
*Дорожка с переводом Л. Володарского доступна благодаря пользователям форума e180: Nadoelo, foxlight, Hattori Hanzo, Savely, Daniel Rock, Wolf_Larsen, Guyver, Kastro, Iceman, MyxAmoP, uchitel538, фёдор александрович, Диммон, Tio, vik19662007, jorn2, zeleniy, nimph, RockFM - 1000, Loki1982, furria62, Denis2251, carnivale, ZeDOK, kinobbk, xerman13, El Capitain, bla_, STONECOLD.

-
-

Пол Уокер

Полное имя — Пол Уильям Уокер IV (Paul William Walker IV).
У Пола есть дочь Мидоу Рейн.
Пол имеет пурпурный по бразильскому джиу-джитсу.
У Уокера английские, ирландские и немецкие корни.
Окончив в 1991 году Христианскую школу в Сан-Вэлли в Калифорнии, Уокер решил заняться изучением морской биологии, поступив в Калифорнийский колледж. Однако любовь к актёрскому ремеслу взяла верх, и он забросил учебу.
30 ноября 2013 года Пол погиб в автокатастрофе. Он направлялся в Южную Калифорнию с другом на Porshe GT, водитель не справился с управлением, машина влетела в дерево и полностью была охвачена огнём.
За краткую биографию спасибо "FILVOVAN ®"

-
- Раздача от:
Вне форума [Профиль] [ЛС]

Meshanik

Пол:

Стаж: 6 лет 4 месяца

Сообщений: 3958

Откуда: Los Angeles

Торрент-статистика

Пост 31-Янв-2014 19:12 (спустя 51 минута)

[Цитировать]

Фильм душевный - Теперь неизвестно что будет с Форсажем в дальнейшем. Пол Уокер душевно исполнял роли в этом душевном фильме.
Скорбим, Помним. Хороший был Актер.
Вне форума [Профиль] [ЛС]
Показать сообщения:    
Ответить на тему

Текущее время: Сегодня 03:59

Часовой пояс: GMT + 3



Вы не можете начинать темы
Вы не можете отвечать на сообщения
Вы не можете редактировать свои сообщения
Вы не можете удалять свои сообщения
Вы не можете голосовать в опросах
Вы не можете прикреплять файлы к сообщениям
Вы не можете скачивать файлы