Today is a free download without charge Download

(OST) Joe Hisaishi - Nausicaa Of The Valley Of Wind / Kaze No Tani No Naushika / 風の谷のナウシカ (35ATC-3 Tokuma Japan Communications) - 1984 г., FLAC (image+.cue), lossless

Reply to topic
 
Author
Message

Omen ®

Longevity: 9 years 1 month

Posts: 181086

Торрент-статистика

Post 30-Jan-2014 05:00

[Quote]

Joe Hisaishi / Nausicaa Of The Valley Of Wind
Жанр: Soundtrack
Композитор: Joe Hisaishi
Год выпуска: 25.03.1984
Издатель (лейбл): Tokuma Japan Communications
Номер по каталогу: 35ATC-3
Страна: Japan
Аудио кодек: FLAC (*.flac)
Тип рипа: image+.cue
Режим рипа: test & copy
Битрейт аудио: lossless
Продолжительность: 00:40:01
Наличие pre-emphasis: да
Источник (релизер): CD (sewerok)
Наличие сканов в содержимом раздачи: нет
Треклист:
01. Nausicaa Of The Valley Of Wind (Opening) (Kaze No Tani No Naushika) [0:04:39.52]
02. An Ohmu Stampede (Ohmu No Bousou) [0:02:35.48]
03. The Valley Of Wind (Kaze No Tani) [0:03:14.00]
04. The Princess Who Loves Insects (Mushi Mezuru Hime) [0:03:12.00]
05. Kushana's Invasion (Kushana No Shinryaku) [0:03:29.00]
06. Battle (Sentou) [0:03:15.50]
07. Interchange With The Ohmu (Ohmu To No Kouryuu) [0:01:39.65]
08. In The Sea Of Corruption (Fukai Nite) [0:02:33.42]
09. Annihilation Of Pejite (Pejite No Zenmetsu) [0:03:51.23]
10. A Battle Between Mehve And Corvette (Mehve To Korubetto No Tatakai) [0:01:17.52]
11. The Resurrection Of The God Warrior (Yomigaeru Kyoshinhei) [0:03:29.05]
12. Nausicaa - Requiem (Naushika - Rekuiemu) [0:02:55.50]
13. Bird Person (Ending) (Tori No Hito) [0:03:48.55]

Лог создания рипа

Exact Audio Copy V1.0 beta 3 from 29. August 2011
EAC extraction logfile from 29. January 2014, 19:25
Joe Hisaishi / Nausicaa Of The Valley Of Wind
Used drive : TSSTcorpCD/DVDW TS-L632D Adapter: 0 ID: 0
Read mode : SecureUtilize accurate stream : YesDefeat audio cache : YesMake use of C2 pointers : No
Read offset correction : 6Overread into Lead-In and Lead-Out : NoFill up missing offset samples with silence : YesDelete leading and trailing silent blocks : NoNull samples used in CRC calculations : YesUsed interface : Native Win32 interface for Win NT & 2000
Used output format : User Defined EncoderSelected bitrate : 896 kBit/sQuality : HighAdd ID3 tag : NoCommand line compressor : C:\Program Files (x86)\Exact Audio Copy\FLAC\FLAC.EXEAdditional command line options : -8 -V -T "Date=%year%" -T "Genre=%genre%" -T "COMMENT=ripped by sewerok® & Big_S®" %source%
TOC of the extracted CD
Track | Start | Length | Start sector | End sector --------------------------------------------------------- 1 | 0:00.00 | 4:39.52 | 0 | 20976 2 | 4:39.52 | 2:35.48 | 20977 | 32649 3 | 7:15.25 | 3:14.00 | 32650 | 47199 4 | 10:29.25 | 3:12.00 | 47200 | 61599 5 | 13:41.25 | 3:29.00 | 61600 | 77274 6 | 17:10.25 | 3:15.50 | 77275 | 91949 7 | 20:26.00 | 1:39.65 | 91950 | 99439 8 | 22:05.65 | 2:33.42 | 99440 | 110956 9 | 24:39.32 | 3:51.23 | 110957 | 128304 10 | 28:30.55 | 1:17.52 | 128305 | 134131 11 | 29:48.32 | 3:29.05 | 134132 | 149811 12 | 33:17.37 | 2:55.50 | 149812 | 162986 13 | 36:13.12 | 3:48.55 | 162987 | 180141
Range status and errors
Selected range
Filename E:\Joe Hisaishi - Nausicaa Of The Valley Of Winds (Soundtrack) [1984](35ATC-3 Tokuma Japan Communications)\Joe Hisaishi - Nausicaa Of The Valley Of Wind.wav
Peak level 100.0 % Extraction speed 1.6 X Range quality 100.0 % Test CRC 917F19C9 Copy CRC 917F19C9 Copy OK
No errors occurred
AccurateRip summary
Track 1 accurately ripped (confidence 2) [3B832C95] (AR v2)Track 2 accurately ripped (confidence 2) [78A08C4C] (AR v2)Track 3 accurately ripped (confidence 2) [A263C0AB] (AR v2)Track 4 accurately ripped (confidence 2) [5C43191A] (AR v2)Track 5 accurately ripped (confidence 2) [CB88EE5A] (AR v2)Track 6 accurately ripped (confidence 2) [1DD04330] (AR v2)Track 7 accurately ripped (confidence 2) [C8260E55] (AR v2)Track 8 accurately ripped (confidence 2) [28E3B649] (AR v2)Track 9 accurately ripped (confidence 2) [3B336A5D] (AR v2)Track 10 accurately ripped (confidence 2) [779D44AB] (AR v2)Track 11 accurately ripped (confidence 2) [422B4D6D] (AR v2)Track 12 accurately ripped (confidence 2) [9E987D00] (AR v2)Track 13 accurately ripped (confidence 2) [C5E922EF] (AR v2)
All tracks accurately ripped
End of status report
---- CUETools DB Plugin V2.1.4
[CTDB TOCID: apJZfdEQ3_VerOdrc67fFwT9R_8-] foundSubmit result: apJZfdEQ3_VerOdrc67fFwT9R_8- has been confirmedTrack | CTDB Status 1 | (26/27) Accurately ripped 2 | (26/27) Accurately ripped 3 | (24/27) Accurately ripped, or (2/27) differs in 1 samples @01:56:49 4 | (25/27) Accurately ripped 5 | (27/27) Accurately ripped 6 | (25/27) Accurately ripped 7 | (26/27) Accurately ripped 8 | (27/27) Accurately ripped 9 | (27/27) Accurately ripped 10 | (27/27) Accurately ripped 11 | (27/27) Accurately ripped 12 | (27/27) Accurately ripped 13 | (27/27) Accurately ripped
==== Log checksum 690856F83E215B34DA51EFA6AF81C8EC6476AADC536EA76A584308A5E0F0C2FF ====

CUETools log

[CUETools log; Date: 29.01.2014 19:26:48; Version: 2.1.4][CTDB TOCID: apJZfdEQ3_VerOdrc67fFwT9R_8-] found.Track | CTDB Status 1 | (27/28) Accurately ripped 2 | (27/28) Accurately ripped 3 | (25/28) Accurately ripped, or (2/28) differs in 1 samples @01:56:49 4 | (26/28) Accurately ripped 5 | (28/28) Accurately ripped 6 | (26/28) Accurately ripped 7 | (27/28) Accurately ripped 8 | (28/28) Accurately ripped 9 | (28/28) Accurately ripped 10 | (28/28) Accurately ripped 11 | (28/28) Accurately ripped 12 | (28/28) Accurately ripped 13 | (28/28) Accurately ripped[AccurateRip ID: 0013cc13-00c252e3-a709610d] found.Track [ CRC | V2 ] Status 01 [c300ab4e|3b832c95] (00+02/19) Accurately ripped 02 [955857f3|78a08c4c] (00+02/19) Accurately ripped 03 [35d1eb00|a263c0ab] (00+02/19) Accurately ripped 04 [b59a61a4|5c43191a] (00+02/19) Accurately ripped 05 [2474c8b0|cb88ee5a] (00+02/19) Accurately ripped 06 [3565dcfd|1dd04330] (00+02/19) Accurately ripped 07 [fc6b4c3f|c8260e55] (00+02/19) Accurately ripped 08 [42b2a428|28e3b649] (00+02/19) Accurately ripped 09 [4ad09a26|3b336a5d] (00+02/19) Accurately ripped 10 [3c12b42b|779d44ab] (00+02/19) Accurately ripped 11 [e1f81a07|422b4d6d] (00+02/19) Accurately ripped 12 [98a6213e|9e987d00] (00+02/19) Accurately ripped 13 [b20b97d1|c5e922ef] (00+02/19) Accurately rippedOffsetted by -362: 01 [f83dc315] (02/19) Accurately ripped 02 [18ddd21f] (02/19) Accurately ripped 03 [a71908a3] (02/19) Accurately ripped 04 [28df0be6] (02/19) Accurately ripped 05 [fc9ed0d0] (02/19) Accurately ripped 06 [61c601a5] (02/19) Accurately ripped 07 [a99a35fd] (02/19) Accurately ripped 08 [eb623c98] (02/19) Accurately ripped 09 [b7072428] (02/19) Accurately ripped 10 [50c76bf2] (02/19) Accurately ripped 11 [d41095d8] (02/19) Accurately ripped 12 [08cc6f30] (02/19) Accurately ripped 13 [8ed4dc93] (02/19) Accurately rippedOffsetted by -100: 01 [15857d56] (03/19) Accurately ripped 02 [48f82f2b] (03/19) Accurately ripped 03 [59f81871] (03/19) Accurately ripped 04 [22e1ca0c] (03/19) Accurately ripped 05 [5fe85493] (03/19) Accurately ripped 06 [1053c231] (03/19) Accurately ripped 07 [f8616d64] (03/19) Accurately ripped 08 [b590d2ce] (03/19) Accurately ripped 09 [230822c5] (03/19) Accurately ripped 10 [b25901cb] (03/19) Accurately ripped 11 [b02ee09e] (03/19) Accurately ripped 12 [4d4ceaab] (03/19) Accurately ripped 13 [ec3ae36f] (03/19) Accurately rippedOffsetted by 36: 01 [376baa80] (03/19) Accurately ripped 02 [2456348b] (03/19) Accurately ripped 03 [fef2b99e] (03/19) Accurately ripped 04 [f1594fee] (03/19) Accurately ripped 05 [5648b8bc] (03/19) Accurately ripped 06 [5bff0453] (03/19) Accurately ripped 07 [34e2ab5b] (03/19) Accurately ripped 08 [392846ce] (03/19) Accurately ripped 09 [4202fc1a] (03/19) Accurately ripped 10 [b62da884] (03/19) Accurately ripped 11 [6f87ca4b] (03/19) Accurately ripped 12 [f361f375] (03/19) Accurately ripped 13 [a1b9e1c7] (03/19) Accurately rippedOffsetted by 146: 01 [91a42168] (04/19) Accurately ripped 02 [214d27b0] (04/19) Accurately ripped 03 [4af0a9c6] (04/19) Accurately ripped 04 [4af0cee7] (04/19) Accurately ripped 05 [78969f64] (04/19) Accurately ripped 06 [5bda96fd] (04/19) Accurately ripped 07 [a1036f4c] (04/19) Accurately ripped 08 [4168d374] (04/19) Accurately ripped 09 [485e16af] (04/19) Accurately ripped 10 [83b90143] (04/19) Accurately ripped 11 [086ff707] (04/19) Accurately ripped 12 [21bcdb50] (04/19) Accurately ripped 13 [c119b211] (04/19) Accurately rippedOffsetted by -186: 01 [681cbd10] (00/19) No match (V2 was not tested) 02 [fc2aa375] (00/19) No match (V2 was not tested) 03 [341297f0] (00/19) No match (V2 was not tested) 04 [6f1b9e79] (00/19) No match (V2 was not tested) 05 [67cd2113] (00/19) No match (V2 was not tested) 06 [177c93fd] (00/19) No match (V2 was not tested) 07 [45f1fac3] (00/19) No match (V2 was not tested) 08 [d3c9fead] (00/19) No match (V2 was not tested) 09 [aacc8882] (00/19) No match (V2 was not tested) 10 [abefb2cf] (00/19) No match (V2 was not tested) 11 [4b8b1b21] (00/19) No match (V2 was not tested) 12 [9e9f5e2b] (00/19) No match (V2 was not tested) 13 [0cdef799] (00/19) No match (V2 was not tested)Offsetted by 167: 01 [cc20b55e] (00/19) No match (V2 was not tested) 02 [db2ccf2b] (00/19) No match (V2 was not tested) 03 [9f358c23] (00/19) No match (V2 was not tested) 04 [2d93ce4f] (00/19) No match (V2 was not tested) 05 [6e65ca0c] (00/19) No match (V2 was not tested) 06 [b68dc3cb] (00/19) No match (V2 was not tested) 07 [89068ef8] (00/19) No match (V2 was not tested) 08 [cbfeeb5c] (00/19) No match (V2 was not tested) 09 [96744c6f] (00/19) No match (V2 was not tested) 10 [5a831679] (00/19) No match (V2 was not tested) 11 [3df2e8f4] (00/19) No match (V2 was not tested) 12 [81c90aef] (00/19) No match (V2 was not tested) 13 [049c8041] (00/19) No match (V2 was not tested)
Track Peak [ CRC32 ] [W/O NULL] [ LOG ] -- 100,0 [917F19C9] [C9609189] CRC32 01 72,8 [F1A5F6AA] [5B9C6DD0] 02 87,0 [F7536CD5] [8BAE14B3] 03 78,7 [24CB7443] [B245BBD7] 04 85,2 [BCEBEA1A] [29B5C917] 05 73,5 [045ACD2C] [784B22F7] 06 88,4 [3EAC57D4] [E4940841] 07 58,8 [2871659F] [31525923] 08 39,6 [CC5F9173] [5E5DA4C8] 09 100,0 [F18C6439] [E9CB7753] 10 80,9 [E9E4AEDE] [90FF9258] 11 65,5 [C6E7990B] [0473383C] 12 66,7 [0553A5E5] [5B9D192F] 13 83,1 [755717C2] [24344017]

Содержание индексной карты (.CUE)

REM GENRE SoundtrackREM DATE 1984REM DISCID A709610DREM COMMENT "ExactAudioCopy v1.0b3"PERFORMER "Joe Hisaishi"TITLE "Nausicaa Of The Valley Of Wind"FILE "Joe Hisaishi - Nausicaa Of The Valley Of Wind.flac" WAVE TRACK 01 AUDIO TITLE "Nausicaa Of The Valley Of Wind (Opening) (Kaze No Tani No Naushika)" PERFORMER "Joe Hisaishi" FLAGS PRE INDEX 01 00:00:00 TRACK 02 AUDIO TITLE "An Ohmu Stampede (Ohmu No Bousou)" PERFORMER "Joe Hisaishi" FLAGS PRE INDEX 01 04:39:52 TRACK 03 AUDIO TITLE "The Valley Of Wind (Kaze No Tani)" PERFORMER "Joe Hisaishi" FLAGS PRE INDEX 01 07:15:25 TRACK 04 AUDIO TITLE "The Princess Who Loves Insects (Mushi Mezuru Hime)" PERFORMER "Joe Hisaishi" FLAGS PRE INDEX 01 10:29:25 TRACK 05 AUDIO TITLE "Kushana's Invasion (Kushana No Shinryaku)" PERFORMER "Joe Hisaishi" FLAGS PRE INDEX 01 13:41:25 TRACK 06 AUDIO TITLE "Battle (Sentou)" PERFORMER "Joe Hisaishi" FLAGS PRE INDEX 01 17:10:25 TRACK 07 AUDIO TITLE "Interchange With The Ohmu (Ohmu To No Kouryuu)" PERFORMER "Joe Hisaishi" FLAGS PRE INDEX 00 20:21:72 INDEX 01 20:26:00 TRACK 08 AUDIO TITLE "In The Sea Of Corruption (Fukai Nite)" PERFORMER "Joe Hisaishi" FLAGS PRE INDEX 01 22:05:65 TRACK 09 AUDIO TITLE "Annihilation Of Pejite (Pejite No Zenmetsu)" PERFORMER "Joe Hisaishi" FLAGS PRE INDEX 01 24:39:32 TRACK 10 AUDIO TITLE "A Battle Between Mehve And Corvette (Mehve To Korubetto No Tatakai)" PERFORMER "Joe Hisaishi" FLAGS PRE INDEX 01 28:30:55 TRACK 11 AUDIO TITLE "The Resurrection Of The God Warrior (Yomigaeru Kyoshinhei)" PERFORMER "Joe Hisaishi" FLAGS PRE INDEX 01 29:48:32 TRACK 12 AUDIO TITLE "Nausicaa - Requiem (Naushika - Rekuiemu)" PERFORMER "Joe Hisaishi" FLAGS PRE INDEX 01 33:17:37 TRACK 13 AUDIO TITLE "Bird Person (Ending) (Tori No Hito)" PERFORMER "Joe Hisaishi" FLAGS PRE INDEX 01 36:13:12
Other forum [Profile] [PM]
Display posts from previous:    
Reply to topic

The time now is: Today 23:38

All times are GMT + 3 Hours



You cannot post new topics in this forum
You cannot reply to topics in this forum
You cannot edit your posts in this forum
You cannot delete your posts in this forum
You cannot vote in polls in this forum
You cannot attach files in this forum
You cannot download files in this forum