Today is a free download without charge Download

Три мушкетёра (Сергей Жигунов) [2013, Россия, приключения, BDRip 720p]

Reply to topic
 
Author
Message

Omen ®

Longevity: 8 years 10 months

Posts: 181086

Торрент-статистика

Post 29-Jan-2014 23:00

[Quote]

Три мушкетёра«Всё за любовь!»- Страна: Россия
Жанр: приключения
Год выпуска: 2013
Продолжительность: 02:03:30-Перевод: Не требуется
Cубтитры: Отсутствуют-Режиссер: Сергей Жигунов
В ролях: Риналь Мухаметов, Юрий Чурсин, Алексей Макаров, Павел Баршак, Екатерина Вилкова, Анна Старшенбаум, Василий Лановой, Филипп Янковский, Константин Лавроненко, Мария Миронова-Описание:«Три мушкетера» — это история о юном гасконце Д’Артаньяне, который, не познав всех радостей любви, оказывается втянут в водоворот политических интриг королевского двора Людовика XIII. В роте королевских мушкетеров Де Тревиля он находит себе верных друзей Атоса, Портоса и Арамиса. Мушкетеры настолько поражены кипучей энергией гасконца и его умением находить неприятности, что принимают самое живое участие не только в многочисленных стычках с гвардейцами кардинала, но и в личной судьбе Д’Артаньяна.
Благодаря друзьям Д’Артаньян находит свою первую любовь — Констанцию Бонасье и ввязывается в опаснейшую историю с подвесками Королевы. Тонкий и дальновидный политик кардинал Ришелье и его подручные Рошфор и Миледи обретают в лице Д’Артаньяна опаснейшего врага. Во имя любви он готов на самые отчаянные подвиги. На пути Д’Артаньяна немало опасных соблазнов и искушений. Но он их все преодолеет, не предав своей дружбы и любви!-IMDB | КиноПоиск | Сэмпл-Качество видео: BDRip 720p | исх. Три мушкетера (2013) Blu-ray 1080p AVC DTS-HD 5.1 - HDCLUB
Формат видео: MKV-Видео: 1280x720 at 24.000 fps (True24p), [email protected], crf, ~8072 kbps avg
Аудио: 48 kHz/24-bit, DTS, 3/2 (L,C,R,l,r) + LFE ch, ~1509.00 kbps avg | Не требуется-Формат субтитров: Отсутствуют
Главы: есть-

MediaInfo

Общее
Уникальный идентификатор : 197542066465150415969816546967485814842 (0x949D37D5EF520707A673B5AAC04E183A)
Полное имя : D:\Thre.Musketeers.2013.720p.BluRay.Rus.HDClub.mkv
Формат : Matroska
Версия формата : Version 2
Размер файла : 8,43 Гбайт
Продолжительность : 2 ч. 3 м.
Общий поток : 9775 Кбит/сек
Название фильма : HDClub present "Thre Musketeers (2013)"
Дата кодирования : UTC 2014-01-11 12:04:25
Программа кодирования : mkvmerge v5.8.0 ('No Sleep / Pillow') built on Sep 2 2012 15:37:04
Библиотека кодирования : libebml v1.2.3 + libmatroska v1.3.0
Видео
Идентификатор : 1
Формат : AVC
Формат/Информация : Advanced Video Codec
Профиль формата : [email protected]
Параметр CABAC формата : Да
Параметр ReFrames формата : 9 кадров
Идентификатор кодека : V_MPEG4/ISO/AVC
Продолжительность : 2 ч. 3 м.
Битрейт : 8072 Кбит/сек
Ширина : 1280 пикселей
Высота : 720 пикселей
Соотношение сторон : 16:9
Режим частоты кадров : Постоянный
Частота кадров : 24,000 кадра/сек
Цветовое пространство : YUV
Субдискретизация насыщенности : 4:2:0
Битовая глубина : 8 бит
Тип развёртки : Прогрессивная
Бит/(Пиксели*Кадры) : 0.365
Размер потока : 6,96 Гбайт (83%)
Заголовок : Thre.Musketeers.2013.720p.BluRay.Rus.HDClub
Библиотека кодирования : x264 core 140 r2377+40 929f149 tMod [[email protected] X86_64]
Настройки программы : cabac=1 / ref=9 / deblock=1:-3:-3 / analyse=0x3:0x133 / me=umh / subme=11 / psy=1 / fade_compensate=0.00 / psy_rd=1.00:0.00 / mixed_ref=1 / me_range=32 / chroma_me=1 / trellis=2 / 8x8dct=1 / cqm=0 / deadzone=21,11 / fast_pskip=0 / chroma_qp_offset=-2 / threads=12 / lookahead_threads=2 / sliced_threads=0 / nr=0 / decimate=1 / interlaced=0 / bluray_compat=0 / constrained_intra=0 / fgo=0 / bframes=7 / b_pyramid=2 / b_adapt=2 / b_bias=0 / direct=1 / weightb=1 / open_gop=0 / weightp=2 / keyint=240 / keyint_min=24 / scenecut=40 / intra_refresh=0 / rc_lookahead=60 / rc=crf / mbtree=0 / crf=18.0000 / qcomp=0.60 / qpmin=0:0:0 / qpmax=69:69:69 / qpstep=4 / vbv_maxrate=50000 / vbv_bufsize=62500 / crf_max=0.0 / nal_hrd=none / filler=0 / ip_ratio=1.25 / pb_ratio=1.15 / aq=2:0.80 / aq-sensitivity=10.00 / aq-factor=1.00:1.00:1.00 / aq2=0 / aq3=0
Язык : Russian
Default : Да
Forced : Нет
Аудио
Идентификатор : 2
Формат : DTS
Формат/Информация : Digital Theater Systems
Режим : 16
Параметр Endianness формата : Big
Идентификатор кодека : A_DTS
Продолжительность : 2 ч. 3 м.
Вид битрейта : Постоянный
Битрейт : 1509 Кбит/сек
Каналы : 6 каналов
Расположение каналов : Front: L C R, Side: L R, LFE
Частота : 48,0 КГц
Битовая глубина : 24 бит
Метод сжатия : С потерями
Размер потока : 1,30 Гбайт (15%)
Заголовок : DTS 5.1 @ 1509 kbps - Blu-Ray Rus
Язык : Russian
Default : Да
Forced : Нет
Меню
00:00:00.000 : ru:Chapter 1
00:00:23.500 : ru:Chapter 2
00:10:51.583 : ru:Chapter 3
00:25:12.208 : ru:Chapter 4
00:39:43.625 : ru:Chapter 5
00:53:49.791 : ru:Chapter 6
01:13:51.791 : ru:Chapter 7
01:28:38.708 : ru:Chapter 8
01:44:52.416 : ru:Chapter 9

Скриншоты


Дополнительно

Сохранены оригинальные чаптеры как на Blu-Ray
Other forum [Profile] [PM]
Display posts from previous:    
Reply to topic

The time now is: Today 13:46

All times are GMT + 3 Hours



You cannot post new topics in this forum
You cannot reply to topics in this forum
You cannot edit your posts in this forum
You cannot delete your posts in this forum
You cannot vote in polls in this forum
You cannot attach files in this forum
You cannot download files in this forum