Today is a free download without charge Download

На крючке! (Наталья Углицких) [2011 г., Россия, мелодрама, комедия, BDRip 720p]

Reply to topic
 
Author
Message

Omen ®

Longevity: 8 years 10 months

Posts: 181086

Торрент-статистика

Post 29-Jan-2014 23:00

[Quote]

На крючке!«Сорваться не получится»- Страна: Россия
Жанр: мелодрама, комедия
Год выпуска: 2011
Продолжительность: 01:30:03-Перевод: Не требуется
Cубтитры: Отсутствуют-Режиссер: Наталья Углицких
В ролях: Екатерина Вилкова, Константин Крюков, Марат Башаров, Максим Матвеев, Алексей Макаров, Валерий Николаев, Светлана Антонова, Игорь Угольников, Виктор Вержбицкий, Андрей Руденский-Описание: Тренер детской школы по фигурному катанию Рита обижена неверным возлюбленным. Тот оставил ее, чтобы жениться на сестре некоего Власова, занимающего 13-е место в списке самых богатых людей страны.
Дабы отомстить несостоявшемуся жениху, Рита решает влюбить в себя этого самого Власова. Есть только одна «небольшая» проблема: никто не знает, как выглядит загадочный Власов; известно только, что он увлекается дайвингом, и проводит время инкогнито в Таиланде.
В поисках Власова Рите помогает журналист Костя, — вместе с ним она и отправляется на далекий остров Тао…-IMDB | КиноПоиск | Сэмпл-Качество видео: BDRip 720p
Формат видео: MKV-Видео: AVC, 1280x690 (1.855), 23.976 fps, 8 771 Kbps (0.414 bit/pixel)
Аудио: 48 kHz, DTS, 3/2 (L,C,R,l,r) + LFE ch, ~1509.00 kbps avg | Не требуется-Формат субтитров: Отсутствуют
Главы: есть-

MediaInfo

General
Unique ID : 176398063983885424201926998433423791756 (0x84B50806EFDE83B6AB3AEB7F3F15968C)
Complete name : D:\Фильмы\Na.Krychke.2011.720p.BluRay.Rus.HDCLUB-madoff.mkv
Format : Matroska
Format version : Version 2
File size : 6.60 GiB
Duration : 1h 30mn
Overall bit rate : 10.5 Mbps
Encoded date : UTC 2013-12-29 15:30:12
Writing application : mkvmerge v5.7.0 ('The Whirlwind') built on Jul 8 2012 20:08:51
Writing library : libebml v1.2.3 + libmatroska v1.3.0
Video
ID : 1
Format : AVC
Format/Info : Advanced Video Codec
Format profile : [email protected]
Format settings, CABAC : Yes
Format settings, ReFrames : 9 frames
Codec ID : V_MPEG4/ISO/AVC
Duration : 1h 30mn
Bit rate : 8 772 Kbps
Width : 1 280 pixels
Height : 690 pixels
Display aspect ratio : 1.85:1
Frame rate mode : Constant
Frame rate : 23.976 fps
Color space : YUV
Chroma subsampling : 4:2:0
Bit depth : 8 bits
Scan type : Progressive
Bits/(Pixel*Frame) : 0.414
Stream size : 5.52 GiB (84%)
Writing library : x264 core 130 r2273 b3065e6
Encoding settings : cabac=1 / ref=9 / deblock=1:-3:-3 / analyse=0x3:0x133 / me=umh / subme=11 / psy=1 / psy_rd=1.05:0.00 / mixed_ref=1 / me_range=48 / chroma_me=1 / trellis=2 / 8x8dct=1 / cqm=0 / deadzone=21,11 / fast_pskip=0 / chroma_qp_offset=-2 / threads=12 / lookahead_threads=2 / sliced_threads=0 / nr=0 / decimate=1 / interlaced=0 / bluray_compat=0 / constrained_intra=0 / bframes=9 / b_pyramid=2 / b_adapt=2 / b_bias=0 / direct=3 / weightb=1 / open_gop=0 / weightp=2 / keyint=250 / keyint_min=23 / scenecut=40 / intra_refresh=0 / rc_lookahead=40 / rc=crf / mbtree=0 / crf=16.5 / qcomp=0.60 / qpmin=0 / qpmax=69 / qpstep=4 / vbv_maxrate=62500 / vbv_bufsize=78125 / crf_max=0.0 / nal_hrd=none / ip_ratio=1.40 / pb_ratio=1.30 / aq=1:0.80
Language : Russian
Default : Yes
Forced : No
Audio
ID : 2
Format : DTS
Format/Info : Digital Theater Systems
Mode : 16
Format settings, Endianness : Big
Codec ID : A_DTS
Duration : 1h 30mn
Bit rate mode : Constant
Bit rate : 1 509 Kbps
Channel count : 6 channels
Channel positions : Front: L C R, Side: L R, LFE
Sampling rate : 48.0 KHz
Bit depth : 16 bits
Compression mode : Lossy
Stream size : 972 MiB (14%)
Language : Russian
Default : Yes
Forced : No
Menu
00:00:00.000 : :00:00:00.000
00:03:57.654 : :00:03:57.654
00:08:36.516 : :00:08:36.516
00:15:13.287 : :00:15:13.287
00:20:11.252 : :00:20:11.252
00:27:55.215 : :00:27:55.215
00:37:44.095 : :00:37:44.095
00:42:23.666 : :00:42:23.666
00:48:26.946 : :00:48:26.946
00:56:13.120 : :00:56:13.120
00:59:41.953 : :00:59:41.953
01:04:10.180 : :01:04:10.180
01:10:16.879 : :01:10:16.879
01:15:48.878 : :01:15:48.878
01:20:20.816 : :01:20:20.816
01:23:45.437 : :01:23:45.437

Скриншоты

Дополнительно

Сохранены оригинальные чаптеры как на Blu-ray.
by madoff
Other forum [Profile] [PM]
Display posts from previous:    
Reply to topic

The time now is: Today 21:50

All times are GMT + 3 Hours



You cannot post new topics in this forum
You cannot reply to topics in this forum
You cannot edit your posts in this forum
You cannot delete your posts in this forum
You cannot vote in polls in this forum
You cannot attach files in this forum
You cannot download files in this forum