Today is a free download without charge Download

Бабушкин козлик (Леонид Амальрик) [1963, Рисованный мультфильм, DVB]

Reply to topic
 
Author
Message

Omen ®

Longevity: 7 years 11 months

Posts: 181087

Торрент-статистика

Post 29-Jan-2014 14:00

[Quote]

Бабушкин козлик. Сказка для взрослых
Страна: СССР
Жанр: Рисованный мультфильм
Продолжительность: 00:17:38
Год выпуска: 1963
Русские субтитры: нет
Режиссёр: Леонид Амальрик
Роли озвучивали: Ю.Юльская (Козлик), Е.Понсова (Бабушка), А.Папанов (1 волк),Н.Граббе (2 волк),Г.Вицин (3 волк).
Описание: Сюжет песенки о непослушном сереньком козлике.Мультфильм является поучительным и рассказывается в нем история о маленьком козлике, который никогда не слушался указаний старших людей из-за этого он попадает в разные опасности и напоминает взрослым о том, как опасно во всем потакать детям.
Доп. информация:
сценарист: Ф.Кривин
художник-постановщик Н.Привалова,Т.Сазонова
xудожники: Фёдор Хитрук,В.Арбеков,Р.Миренкова,О.Столбова,Т.Таранович
оператор: М.Друян
композитор: Никита Богословский
Качество: DVB
Формат: MPEG-PS
Видео: MPEG2 Video, 704x576 (4:3), 25 fps, ~2421 kbps, 0.239 bit/pixel
Аудио: MPEG Audio, 2 сh, 48 kHz, 160 kbps
Субтитры: нет

Подробные технические данные

Format : MPEG-PSFile size : 332 MiBDuration : 17mn 38sOverall bit rate mode : VariableOverall bit rate : 2 634 Kbps
VideoID : 224 (0xE0)Format : MPEG VideoFormat version : Version 2Format profile : [email protected] settings, BVOP : YesFormat settings, Matrix : CustomFormat settings, GOP : VariableDuration : 17mn 38sBit rate mode : VariableBit rate : 2 421 KbpsMaximum bit rate : 15.0 MbpsWidth : 704 pixelsHeight : 576 pixelsDisplay aspect ratio : 4:3Frame rate : 25.000 fpsStandard : PALColor space : YUVChroma subsampling : 4:2:0Bit depth : 8 bitsScan type : InterlacedScan order : Top Field FirstCompression mode : LossyBits/(Pixel*Frame) : 0.239Stream size : 306 MiB (92%)
AudioID : 192 (0xC0)Format : MPEG AudioFormat version : Version 1Format profile : Layer 2Duration : 17mn 38sBit rate mode : ConstantBit rate : 160 KbpsChannel(s) : 2 channelsSampling rate : 48.0 KHzCompression mode : LossyStream size : 20.2 MiB (6%)

Скриншоты

Other forum [Profile] [PM]
Display posts from previous:    
Reply to topic

The time now is: Today 06:03

All times are GMT + 3 Hours



You cannot post new topics in this forum
You cannot reply to topics in this forum
You cannot edit your posts in this forum
You cannot delete your posts in this forum
You cannot vote in polls in this forum
You cannot attach files in this forum
You cannot download files in this forum