Today is a free download without charge Download

Бабушкин козлик (Леонид Амальрик) [1963, Рисованный мультфильм, SATRip]

Reply to topic
 
Author
Message

Omen ®

Longevity: 7 years 11 months

Posts: 181087

Торрент-статистика

Post 28-Jan-2014 23:32

[Quote]

Бабушкин козлик. Сказка для взрослых
Страна: СССР
Жанр: Рисованный мультфильм
Продолжительность: 00:17:38
Год выпуска: 1963
Русские субтитры: нет
Режиссёр: Леонид Амальрик
Роли озвучивали: Ю.Юльская (Козлик), Е.Понсова (Бабушка), А.Папанов (1 волк),Н.Граббе (2 волк),Г.Вицин (3 волк).
Описание: Сюжет песенки о непослушном сереньком козлике.Мультфильм является поучительным и рассказывается в нем история о маленьком козлике, который никогда не слушался указаний старших людей из-за этого он попадает в разные опасности. В мультфильме дети смогут понять, что нельзя ругаться со взрослыми и быть непослушными, так как это может повлечь плохие события и напоминает взрослым о том, как опасно во всем потакать детям.
Доп. информация:
сценарист: Ф.Кривин
художник-постановщик Н.Привалова,Т.Сазонова
xудожники: Фёдор Хитрук,В.Арбеков,Р.Миренкова,О.Столбова,Т.Таранович
оператор: М.Друян
композитор: Никита Богословский
Качество: SATRip
Формат: AVI
Видео: 640x480 (1.33:1), 25 fps, XviD MPEG-4 ~2149 kbps avg, 0.28 bit/pixel
Аудио: 48 kHz, AC3 Dolby Digital, 2/0 (L,R) ch, ~192.00 kbps avg
Субтитры: нет

Подробные технические данные

Format : AVIFormat/Info : Audio Video InterleaveFile size : 297 MiBDuration : 17mn 38sOverall bit rate : 2 351 KbpsWriting application : VirtualDubModRus 1.5.10.2 (build 2542/release)Copyright : Rutracker.orgComment : SATRip by dvdss
VideoID : 0Format : MPEG-4 VisualFormat profile : Advanced [email protected] settings, BVOP : 2Format settings, QPel : NoFormat settings, GMC : No warppointsFormat settings, Matrix : CustomCodec ID : XVIDCodec ID/Hint : XviDDuration : 17mn 38sBit rate : 2 149 KbpsWidth : 640 pixelsHeight : 480 pixelsDisplay aspect ratio : 1.222Original display aspect ratio : 4:3Frame rate : 25.000 fpsColor space : YUVChroma subsampling : 4:2:0Bit depth : 8 bitsScan type : ProgressiveCompression mode : LossyBits/(Pixel*Frame) : 0.280Stream size : 271 MiB (91%)Writing library : XviD 65
AudioID : 1Format : AC-3Format/Info : Audio Coding 3Mode extension : CM (complete main)Format settings, Endianness : BigCodec ID : 2000Duration : 17mn 38sBit rate mode : ConstantBit rate : 192 KbpsChannel(s) : 2 channelsChannel positions : Front: L RSampling rate : 48.0 KHzBit depth : 16 bitsCompression mode : LossyStream size : 24.2 MiB (8%)Alignment : Split accross interleavesInterleave, duration : 40 ms (1.00 video frame)Interleave, preload duration : 500 ms
Other forum [Profile] [PM]
Display posts from previous:    
Reply to topic

The time now is: Today 16:46

All times are GMT + 3 Hours



You cannot post new topics in this forum
You cannot reply to topics in this forum
You cannot edit your posts in this forum
You cannot delete your posts in this forum
You cannot vote in polls in this forum
You cannot attach files in this forum
You cannot download files in this forum