Today is a free download without charge Download

Остров везения (Кирилл Козлов) [2013, комедия, приключения, BDRip 720p] [Лицензия]

Reply to topic
 
Author
Message

DED ®

Longevity: 7 years 11 months

Posts: 3943

Торрент-статистика

Post 28-Jan-2014 14:53

[Quote]

--Остров везения-- Год выпуска: 2013
Страна: Россия
Производство: Enjoy Movies
Жанр: комедия, приключения
Продолжительность: 01:22:25
Озвучивание: оригинал [Лицензия]-Режиссер: Кирилл Козлов-В ролях: Роман Юнусов, Светлана Ходченкова, Агния Дитковските, Анна Хилькевич, Алексей Чумаков, Татьяна Орлова, Даша Астафьева, Юлия Гришина, Александр Сазонов, Мария Кравцова...-Описание: Тихоокеанский лайнер. Полуобнажённые красотки, участвующие в конкурсе красоты. Шампанское и голубой океан… О таком бывшая звезда телевидения, а ныне ведущий дешёвых свадеб, даже и не мечтал. Однако круиз мечты неожиданно прервётся цепью невероятных событий. И наш герой окажется на необитаемом острове, в окружении трёх финалисток конкурса — принципиальной стервы, паникёрши и классической блондинки.
Что делать? Ведь лишившись возможности выиграть вожделенную корону, девушки его наверняка порвут на кусочки… Значит надо продолжать конкурс! Сделав вид, что так задумано, Роман начинает представление. Он убеждает девиц, что на острове понатыканы скрытые камеры и микрофоны, шоу выводится в эфир одного из главных каналов и вся страна теперь следит за финалом конкурса красоты! И всего-то нужно пройти пару испытаний под прицелом вон того ближайшего кокоса… то есть камеры. И пока девушки включаются в соревнование, наш герой ищет путь спасения с острова…-- --Качество: BDRip 720p
Формат: MKV
Видео кодек: H.264
Аудио кодек: AC3
Видео: 1280x544 (2.35:1), 24.000 fps, MPEG-4 AVC, ~6376 kbps avg, 0.382 bit/pixel
Аудио: 48.0 kHz, AC3 Dolby Digital, 5.1 (L,C,R,l,r) + LFE ch, ~640.00 kbps avg
Cубтитры: нет
Дополнительно: Сохранены оригинальные чаптеры, как на Blu-Ray.--

Media Info

Общее
Полное имя : 0str0vok.2013.O.BDRip.720.mkv
Формат : Matroska
Версия формата : Version 2
Размер файла : 4,45 Гбайт
Продолжительность : 1 ч. 22 м.
Общий поток : 7791 Кбит/сек
Название фильма : Ostrov vezeniya (2013)
Дата кодирования : UTC 2014-01-16 09:26:41
Программа кодирования : mkvmerge v4.6.0 ('Still Crazy After All These Years') сборка от Mar 10 2011 02:50:32
Библиотека кодирования : libebml v1.2.0 + libmatroska v1.1.0
Видео
Идентификатор : 1
Формат : AVC
Формат/Информация : Advanced Video Codec
Профиль формата : [email protected]
Параметр CABAC формата : Да
Параметр ReFrames формата : 11 кадров
Идентификатор кодека : V_MPEG4/ISO/AVC
Продолжительность : 1 ч. 22 м.
Битрейт : 6376 Кбит/сек
Ширина : 1280 пикселей
Высота : 544 пикселей
Соотношение сторон : 2,35:1
Режим частоты кадров : Постоянный
Частота кадров : 24,000 кадра/сек
Цветовое пространство : YUV
Субдискретизация насыщенности : 4:2:0
Битовая глубина : 8 бит
Тип развёртки : Прогрессивная
Бит/(Пиксели*Кадры) : 0.382
Размер потока : 3,12 Гбайт (70%)
Заголовок : 0str0vok.2013.O.BDRip.720.mkv
Библиотека кодирования : x264 core 130 r2273 b3065e6
Настройки программы : cabac=1 / ref=11 / deblock=1:-3:-3 / analyse=0x3:0x133 / me=umh / subme=11 / psy=1 / psy_rd=1.05:0.00 / mixed_ref=1 / me_range=48 / chroma_me=1 / trellis=2 / 8x8dct=1 / cqm=0 / deadzone=21,11 / fast_pskip=0 / chroma_qp_offset=-2 / threads=12 / lookahead_threads=2 / sliced_threads=0 / nr=0 / decimate=1 / interlaced=0 / bluray_compat=0 / constrained_intra=0 / bframes=9 / b_pyramid=2 / b_adapt=2 / b_bias=0 / direct=3 / weightb=1 / open_gop=0 / weightp=2 / keyint=250 / keyint_min=23 / scenecut=40 / intra_refresh=0 / rc_lookahead=40 / rc=crf / mbtree=0 / crf=16.5 / qcomp=0.60 / qpmin=0 / qpmax=69 / qpstep=4 / vbv_maxrate=62500 / vbv_bufsize=78125 / crf_max=0.0 / nal_hrd=none / ip_ratio=1.40 / pb_ratio=1.30 / aq=1:0.80
Язык : Russian
Default : Да
Forced : Нет
Аудио #1
Идентификатор : 2
Формат : AC-3
Формат/Информация : Audio Coding 3
Расширение режима : CM (complete main)
Параметр Endianness формата : Big
Идентификатор кодека : A_AC3
Продолжительность : 1 ч. 22 м.
Вид битрейта : Постоянный
Битрейт : 640 Кбит/сек
Каналы : 6 каналов
Расположение каналов : Front: L C R, Side: L R, LFE
Частота : 48,0 КГц
Битовая глубина : 16 бит
Метод сжатия : С потерями
Размер потока : 377 Мбайт (8%)
Заголовок : AC3, 6 ch, 640 kbps
Язык : Russian
Default : Да
Forced : Нет
Меню
00:00:00.000 : ru:Chapter 1
00:09:35.458 : ru:Chapter 2
00:20:10.041 : ru:Chapter 3
00:28:56.125 : ru:Chapter 4
00:41:51.583 : ru:Chapter 5
00:51:06.625 : ru:Chapter 6
00:59:31.291 : ru:Chapter 7
01:08:06.375 : ru:Chapter 8

Скриншоты

     
-- --
Other forum [Profile] [PM]
Display posts from previous:    
Reply to topic

The time now is: Today 13:55

All times are GMT + 3 Hours



You cannot post new topics in this forum
You cannot reply to topics in this forum
You cannot edit your posts in this forum
You cannot delete your posts in this forum
You cannot vote in polls in this forum
You cannot attach files in this forum
You cannot download files in this forum