Today is a free download without charge Download

Школа снеговиков. 2 серии: Дед Мороз из Дедморозовки. Хоккей в Дедморозовке. (Александр Маркелов) [2010-2011, Мультфильм, WEBRip]

Reply to topic
 
Author
Message

Omen ®

Longevity: 7 years 11 months

Posts: 181087

Торрент-статистика

Post 27-Jan-2014 14:00

[Quote]

Школа снеговиков. 2 серии: Дед Мороз из Дедморозовки. Хоккей в Дедморозовке.
Страна: Россия
Жанр: Мультфильм
Продолжительность: 00:13:14 + 00:13:32
Год выпуска: 2010-2011
Режиссёр: Александр Маркелов
Автор сценария: Андрей Усачев
Роли озвучивали: Лариса Брохман, Елена Низовитина, Александр Пожаров, Александр Пинегин, Александр Сичкарь, Алексей Емцов.
Описание: Далеко на Севере, где-то в Архангельской или Вологодской области, есть невидимая деревня Дедморозовка. Невидимая, потому что накрыта она волшебным невидимым покрывалом. В этой деревне и проводит большую часть времени Дед Мороз и его внучка Снегурочка. А еще там живут помощники Деда Мороза снеговики и снеговички. «На самом крайнем Севере, чудес и тайн полна, среди лесов затеряна, деревня есть одна…»
Семпл: http://multi-up.com/944649
Качество: WEBRip
Формат: AVI
Видео: Xvid 576x432 25fps 1108Kbps
Аудио: Dolby AC3 48000Hz 96kbps

Подробные технические данные

VideoID : 0Format : MPEG-4 VisualFormat profile : Advanced [email protected] settings, BVOP : YesFormat settings, QPel : NoFormat settings, GMC : No warppointsFormat settings, Matrix : CustomCodec ID : XVIDCodec ID/Hint : XviDDuration : 13mn 13sBit rate : 1 108 KbpsWidth : 576 pixelsHeight : 432 pixelsDisplay aspect ratio : 4:3Frame rate : 25.000 fpsColor space : YUVChroma subsampling : 4:2:0Bit depth : 8 bitsScan type : ProgressiveCompression mode : LossyBits/(Pixel*Frame) : 0.178Stream size : 105 MiB (91%)Writing library : XviD 64
AudioID : 1Format : AC-3Format/Info : Audio Coding 3Mode extension : CM (complete main)Format settings, Endianness : BigCodec ID : 2000Duration : 13mn 13sBit rate mode : ConstantBit rate : 96.0 KbpsChannel(s) : 1 channelChannel positions : Front: CSampling rate : 48.0 KHzBit depth : 16 bitsCompression mode : LossyStream size : 9.08 MiB (8%)Alignment : Split accross interleavesInterleave, duration : 40 ms (1.00 video frame)Interleave, preload duration : 500 ms

Скриншоты Часть 1. Дед Мороз из Дедморозовки

Скриншоты Часть 2. Хоккей в Дедморозовке

Other forum [Profile] [PM]
Similar theme
Forum Topic Author Torrent Replies Last Post
./templates/default/images/folder_dl.gif Обучающее видео Алена Кравченко - Видеошкола игры на гитаре. Сборник (диск 1, 2, 3 и видеоразборы песен группы Ария) [2009, DVDRip, RUS] sashau
1 | 0

0 | 2757

22

2013-05-14 20:20
sashau Latest
Display posts from previous:    
Reply to topic

The time now is: Today 20:56

All times are GMT + 3 Hours



You cannot post new topics in this forum
You cannot reply to topics in this forum
You cannot edit your posts in this forum
You cannot delete your posts in this forum
You cannot vote in polls in this forum
You cannot attach files in this forum
You cannot download files in this forum