Today is a free download without charge Download

Тонкая грань / 1-8 cерии из 8 (Тимур Кабулов) [2011 г., мелодрама, детектив, DVDRip]

Reply to topic
 
Author
Message

sassad ®

Gender:

Longevity: 10 years

Posts: 1214

Location: Галич

Торрент-статистика

Post 27-Nov-2011 18:58

[Quote]

Тонкая грань -1-8 cерии из 8--
Год выпуска: 2011
Страна: Россия
Жанр: мелодрама, детектив
Продолжительность: 8 x ~ 00:44:00
Перевод: Не требуется-Режиссер: Тимур Кабулов
Сценарий: Дмитрий Каморин

В ролях: Илья Древнов, Илья Древнов, Елена Панова, Елена Панова, Павел Сборщиков, Павел Сборщиков, Владислав Резник, Владислав Резник, Роман Ладнев, Роман Ладнев, Илья Барабанов, Илья Барабанов, Вадим Андреев, Вадим Андреев, Егор Катков, Егор Катков, Александр Кудинов, Александр Кудинов, Андрей Белозеров, Андрей Белозеров-Описание: В районной прокуратуре новый сотрудник — Павел Кругляков. Коллеги воспринимают нового назначенца в штыки, однако новичок оказывается совсем не прост. В первую же неделю он, играючи, раскрывает два безнадежных дела, не реагируя на подколки, оставаясь дружелюбным и сдержанным. Павла привлекает красивая, умная и к тому же одинокая коллега — Марина Синицына, которая в свою очередь тоже обращает внимание на нового сослуживца.Работая рядом с Павлом, Марина не перестает удивляться его уму, таланту, доброте и человечности. Ее удивление перерастает в интерес, а потом возникает чувство, которое становится взаимным. Но это не радует только одного человека — их коллегу Мартынова, который давно ухаживал за Синицыной. Образуется любовный треугольник, и Мартынов решается на подлость...-Качество: DVDRip
Формат: AVI
Видео кодек: DivX
Аудио кодек: MP3
Видео: DivX, ~ 1196 Кбит/с, 720x402
Аудио: MP3, 2 ch, 128 Кбит/с
-

MI

Код:
General
Complete name : D:\DOWNLOAD\Тонкая грань 1-8 [2011] DVDRip\Tonkaya.Gran.8.2011.DVDRip.avi
Format : AVI
Format/Info : Audio Video Interleave
File size : 425 MiB
Duration : 44mn 33s
Overall bit rate : 1 334 Kbps
Writing application : VirtualDubMod 1.5.10.2 (build 2540/release)
Writing library : VirtualDubMod build 2540/release
Video
ID : 0
Format : MPEG-4 Visual
Format profile : Advanced [email protected]
Format settings, BVOP : 2
Format settings, QPel : No
Format settings, GMC : No warppoints
Format settings, Matrix : Default (H.263)
Muxing mode : Packed bitstream
Codec ID : XVID
Codec ID/Hint : XviD
Duration : 44mn 33s
Bit rate : 1 196 Kbps
Width : 720 pixels
Height : 402 pixels
Display aspect ratio : 16:9
Frame rate : 23.976 fps
Color space : YUV
Chroma subsampling : 4:2:0
Bit depth : 8 bits
Scan type : Progressive
Compression mode : Lossy
Bits/(Pixel*Frame) : 0.172
Stream size : 381 MiB (90%)
Writing library : XviD 1.2.1 (UTC 2008-12-04)
Audio
ID : 1
Format : MPEG Audio
Format version : Version 1
Format profile : Layer 3
Mode : Joint stereo
Mode extension : MS Stereo
Codec ID : 55
Codec ID/Hint : MP3
Duration : 44mn 33s
Bit rate mode : Constant
Bit rate : 128 Kbps
Channel(s) : 2 channels
Sampling rate : 44.1 KHz
Compression mode : Lossy
Stream size : 40.8 MiB (10%)
Alignment : Split accross interleaves
Interleave, duration : 42 ms (1.00 video frame)
Interleave, preload duration : 500 ms

Скриншоты

           
-

_________________
Other forum [Profile] [PM]
Display posts from previous:    
Reply to topic

The time now is: Today 09:42

All times are GMT + 3 Hours



You cannot post new topics in this forum
You cannot reply to topics in this forum
You cannot edit your posts in this forum
You cannot delete your posts in this forum
You cannot vote in polls in this forum
You cannot attach files in this forum
You cannot download files in this forum