Today is a free download without charge Download

Metallica: Сквозь невозможное в 3Д / Metallica Through the Never 3D (Нимрод Антал / Nimród Antal) [2013, Музыка, Приключения, BDrip-AVC] Half OverUnder / Вертикальная анаморфная стереопара

Reply to topic
 
Author
Message

Omen ®

Longevity: 8 years 8 months

Posts: 181087

Торрент-статистика

Post 18-Jan-2014 20:00

[Quote]

Metallica: Сквозь невозможное
Metallica Through the Never

Год выпуска: 2013
Страна: США (PictureHouse, Blackened)
Жанр: Музыка, Приключения
Продолжительность: 01:32:45
Перевод: Отсутствует
Режиссер: Нимрод Антал / Nimród Antal-В фильме снимались:
......
Trip - Дэйн ДеХаан
Джеймс Хетфилд - Lead Vocal, Guitar
Ларс Ульрих - Drums, Vocal
Кирк Хеммет - Guitar, Vocal
Роберт Трухильо - Bass, Vocal
-Описание: Участник технической команды группы Metallica получает задание — привезти сумку, содержимое которой необходимо группе для выступления. Сопровождая таинственную сумку, он попадает в невероятные передряги. Картина представляет собой смесь игрового фильма и концерта.-Премьера: 9 сентября 2013 (26 сентября 2013)
Бюджет: $18 000 000

. .
-Качество: BDRip (by Ash61)
Контейнер: MKV
Формат 3D: Half OverUnder / Вертикальная анаморфная стереопара
Порядок ракурсов: левый ракурс первый
Видео кодек: x264
Аудио кодек: AC3, DTS-HD MA-Видео: AVC / 23,976 fps / 1920х1080p / 17.3 Mbps
Аудио: Английский / AC3 / 48 KHz / 5.1 ch / 640 Kbps (Original - BD 3D)
Отдельным файлом - Английский / DTS-HD Master Audio 5.1 / 48 kHz / 5132 kbps / 24-bit (DTS Core: 5.1 / 48 kHz / 1509 kbps / 24-bit)
Субтитры: (SRT)
Внешние (UTF-8) - English Форсированные (Названия песен) (включены по умолчанию)
Вшитые (softsub) - English Форсированные (Названия песен) (включены по умолчанию)

MediaInfo

General
Unique ID : 173110322135385416274330356965077253270 (0x823BD5D6C3E00DEF8C0C45F9B6897C96)
Complete name : E:\Metallica.ThroughTheNever(2013)3D-halfOU(Ash61)Eng\Metallica.ThroughTheNever(2013)3D-halfOU(Ash61)Eng.mkv
Format : Matroska
Format version : Version 2
File size : 11.9 GiB
Duration : 1h 32mn
Overall bit rate : 18.3 Mbps
Movie name : Metallica: Сквозь невозможное / Metallica Through the Never (2013) 3D
Encoded date : UTC 2014-01-14 16:35:50
Writing application : mkvmerge v5.8.0 ('No Sleep / Pillow') built on Sep 2 2012 15:37:04
Writing library : libebml v1.2.3 + libmatroska v1.3.0
Video
ID : 1
Format : AVC
Format/Info : Advanced Video Codec
Format profile : [email protected]
Format settings, CABAC : Yes
Format settings, ReFrames : 4 frames
Codec ID : V_MPEG4/ISO/AVC
Duration : 1h 32mn
Bit rate : 17.3 Mbps
Width : 1 920 pixels
Height : 1 080 pixels
Display aspect ratio : 16:9
Frame rate mode : Constant
Frame rate : 23.976 fps
Color space : YUV
Chroma subsampling : 4:2:0
Bit depth : 8 bits
Scan type : Progressive
Bits/(Pixel*Frame) : 0.349
Stream size : 11.2 GiB (95%)
Title : BDRip by Ash61
Writing library : x264 core 129 r2245 bc13772
Encoding settings : cabac=1 / ref=4 / deblock=1:-3:-3 / analyse=0x3:0x113 / me=umh / subme=10 / psy=1 / psy_rd=1.00:0.15 / mixed_ref=1 / me_range=32 / chroma_me=1 / trellis=2 / 8x8dct=1 / cqm=0 / deadzone=21,11 / fast_pskip=1 / chroma_qp_offset=-3 / threads=12 / lookahead_threads=2 / sliced_threads=0 / nr=0 / decimate=1 / interlaced=0 / bluray_compat=0 / constrained_intra=0 / bframes=9 / b_pyramid=2 / b_adapt=2 / b_bias=0 / direct=3 / weightb=1 / open_gop=0 / weightp=2 / keyint=250 / keyint_min=23 / scenecut=40 / intra_refresh=0 / rc_lookahead=60 / rc=crf / mbtree=1 / crf=17.0 / qcomp=0.70 / qpmin=0 / qpmax=69 / qpstep=4 / vbv_maxrate=40000 / vbv_bufsize=30000 / crf_max=0.0 / nal_hrd=none / frame-packing=4 / ip_ratio=1.40 / aq=1:0.70
Language : English
Default : Yes
Forced : No
Audio
ID : 2
Format : AC-3
Format/Info : Audio Coding 3
Mode extension : CM (complete main)
Format settings, Endianness : Big
Codec ID : A_AC3
Duration : 1h 32mn
Bit rate mode : Constant
Bit rate : 640 Kbps
Channel(s) : 6 channels
Channel positions : Front: L C R, Side: L R, LFE
Sampling rate : 48.0 KHz
Bit depth : 16 bits
Compression mode : Lossy
Stream size : 425 MiB (3%)
Title : Original - BD 3D
Language : English
Default : Yes
Forced : No
Text
ID : 3
Format : UTF-8
Codec ID : S_TEXT/UTF8
Codec ID/Info : UTF-8 Plain Text
Title : Названия песен
Language : English
Default : Yes
Forced : No
Menu
00:00:00.000 : :1. Introduction
00:03:48.228 : :2. Ecstasy of Gold
00:05:17.317 : :3. Creeping Death
00:10:56.155 : :4. For Whom the Bell Tolls
00:15:01.359 : :5. Fuel
00:19:34.965 : :6. Ride the Lightning
00:25:41.498 : :7. One
00:34:43.957 : :8. The Memory Remains
00:39:51.931 : :9. Wherever I May Roam
00:41:25.274 : :10. Cyanide
00:47:09.076 : :11. ...And Justice for All
00:55:25.697 : :12. Master of Puppets
01:03:46.239 : :13. Battery
01:07:02.060 : :14. Nothing Else Matters
01:12:45.486 : :15. Enter Sandman
01:19:27.429 : :16. Hit the Lights
01:24:26.937 : :17. Orion

Для оценки 3Д - Анимированные скрины















Трек-лист

1. Introduction
2. Ecstasy of Gold
3. Creeping Death
4. For Whom the Bell Tolls
5. Fuel
6. Ride the Lightning
7. One
8. The Memory Remains
9. Wherever I May Roam
10. Cyanide
11. ...And Justice for All
12. Master of Puppets
13. Battery
14. Nothing Else Matters
15. Enter Sandman
16. Hit the Lights
17. Orion

Знаете ли вы, что...:

  • Голландскому режиссеру Антону Корбейну предлагали возглавить проект, но он был вынужден отказаться из-за несогласованности графиков съемок с его фильмом «Особо опасен» (2013).
  • В самом начале фильма парень падает со скейта. Интересен тот факт, что сам Джеймс Хетфилд не раз ломал себе руку из-за данного средства передвижения, из-за чего теперь концертный контракт содержит пункт «NO SKATEBOARDING».
  • Сценарий фильма занимает всего лишь 15 страниц, и в нём почти нет диалогов.
Other forum [Profile] [PM]
Display posts from previous:    
Reply to topic

The time now is: Today 02:48

All times are GMT + 3 Hours



You cannot post new topics in this forum
You cannot reply to topics in this forum
You cannot edit your posts in this forum
You cannot delete your posts in this forum
You cannot vote in polls in this forum
You cannot attach files in this forum
You cannot download files in this forum