Today is a free download without charge Download

Старик Перекати-поле (Николай Федоров)[1960., Рисованная анимация, Сказка]TVRip

Reply to topic
 
Author
Message

sashau ®

Gender:

Longevity: 8 years 10 months

Posts: 3497

Торрент-статистика

Post 18-Jan-2014 17:09

[Quote]

Старик Перекати-поле- Год выпуска: 1960
Жанр: Рисованная анимация, Сказка
Режиссер: Николай Федоров
Персонажи: Мультипликационные
Описание фильма:
По мотивам киргизской сказки. Живет на свете старик и ничего у него нет, вот и бродит он по свету. Все его знали и всех он не раз выручал, а когда пересохла река, он, обхитрив великанов, вернул реку людям.

Продолжительность: 00:09:37
Качество видео: TVRip
Видеокодек: Xvid
Битрейт видео: ~1195 Kbps
Размер кадра: 688 x 572
Аудиокодек: MP3, 2 ch
Битрейт аудио: 128 kbps

MediaInfo

starik.perekati.pole.avi
Format : AVI
Format/Info : Audio Video Interleave
File size : 91.6 MiB
Duration : 9mn 37s
Overall bit rate : 1 331 Kbps
Writing library : VirtualDub-MPEG2 build 24600/release
Video
ID : 0
Format : MPEG-4 Visual
Format profile : Advanced [email protected]
Format settings, BVOP : Yes
Format settings, QPel : No
Format settings, GMC : No warppoints
Format settings, Matrix : Default (H.263)
Codec ID : XVID
Codec ID/Hint : XviD
Duration : 9mn 37s
Bit rate : 1 193 Kbps
Width : 688 pixels
Height : 572 pixels
Display aspect ratio : 1.203
Frame rate : 25.000 fps
Color space : YUV
Chroma subsampling : 4:2:0
Bit depth : 8 bits
Scan type : Progressive
Compression mode : Lossy
Bits/(Pixel*Frame) : 0.121
Stream size : 82.1 MiB (90%)
Writing library : XviD 1.2.0.dev47 (UTC 2006-11-01)
Audio
ID : 1
Format : MPEG Audio
Format version : Version 1
Format profile : Layer 3
Mode : Joint stereo
Codec ID : 55
Codec ID/Hint : MP3
Duration : 9mn 37s
Bit rate mode : Constant
Bit rate : 128 Kbps
Channel count : 2 channels
Sampling rate : 44.1 KHz
Compression mode : Lossy
Stream size : 8.81 MiB (10%)
Alignment : Split accross interleaves
Interleave, duration : 40 ms (1.00 video frame)
Interleave, preload duration : 500 ms
Скриншоты:
         
Other forum [Profile] [PM]
Display posts from previous:    
Reply to topic

The time now is: Today 11:34

All times are GMT + 3 Hours



You cannot post new topics in this forum
You cannot reply to topics in this forum
You cannot edit your posts in this forum
You cannot delete your posts in this forum
You cannot vote in polls in this forum
You cannot attach files in this forum
You cannot download files in this forum